<?xml version="1.0" standalone="no"?>
<!DOCTYPE svg PUBLIC "-//W3C//DTD SVG 1.1//EN" "http://www.w3.org/Graphics/SVG/1.1/DTD/svg11.dtd">
<svg xmlns="http://www.w3.org/2000/svg">
<metadata>Copyright (C) 2021 by original authors @ fontello.com</metadata>
<defs>
<font id="klbtheme" horiz-adv-x="1000" >
<font-face font-family="klbtheme" font-weight="400" font-stretch="normal" units-per-em="1000" ascent="850" descent="-150" />
<missing-glyph horiz-adv-x="1000" />
<glyph glyph-name="star" unicode="&#xe800;" d="M929 489q0-12-15-27l-202-197 48-279q0-4 0-12 0-11-6-19t-17-9q-10 0-22 7l-251 132-250-132q-12-7-23-7-11 0-17 9t-6 19q0 4 1 12l48 279-203 197q-14 15-14 27 0 21 31 26l280 40 126 254q11 23 27 23t28-23l125-254 280-40q32-5 32-26z" horiz-adv-x="928.6" />

<glyph glyph-name="star-empty" unicode="&#xe801;" d="M635 290l170 166-235 34-106 213-105-213-236-34 171-166-41-235 211 111 211-111z m294 199q0-12-15-27l-202-197 48-279q0-4 0-12 0-28-23-28-10 0-22 7l-251 132-250-132q-12-7-23-7-11 0-17 9t-6 19q0 4 1 12l48 279-203 197q-14 15-14 27 0 21 31 26l280 40 126 254q11 23 27 23t28-23l125-254 280-40q32-5 32-26z" horiz-adv-x="928.6" />

<glyph glyph-name="star-half" unicode="&#xe802;" d="M464 832v-747l-250-132q-12-7-23-7-11 0-17 9t-6 19q0 4 1 12l48 279-203 197q-14 15-14 27 0 21 31 26l280 40 126 254q11 23 27 23z" horiz-adv-x="500" />

<glyph glyph-name="cancel-circled" unicode="&#xe803;" d="M420 770q174 0 297-123t123-297-123-297-297-123-297 123-123 297 123 297 297 123z m86-420l154 154-86 86-154-152-152 152-88-86 154-154-154-152 88-86 152 152 154-152 86 86z" horiz-adv-x="840" />

<glyph glyph-name="cancel-squared" unicode="&#xe804;" d="M700 750q42 0 71-29t29-71l0-600q0-40-29-70t-71-30l-600 0q-40 0-70 30t-30 70l0 600q0 42 30 71t70 29l600 0z m-146-638l86 86-154 152 154 154-86 86-154-152-152 152-88-86 154-154-154-152 88-86 152 152z" horiz-adv-x="800" />

<glyph glyph-name="plus-circled" unicode="&#xe805;" d="M420 770q174 0 297-123t123-297-123-297-297-123-297 123-123 297 123 297 297 123z m52-470l200 0 0 102-200 0 0 202-102 0 0-202-202 0 0-102 202 0 0-202 102 0 0 202z" horiz-adv-x="840" />

<glyph glyph-name="plus-squared" unicode="&#xe806;" d="M700 750q42 0 71-29t29-71l0-600q0-40-29-70t-71-30l-600 0q-40 0-70 30t-30 70l0 600q0 42 30 71t70 29l600 0z m-50-450l0 100-200 0 0 200-100 0 0-200-200 0 0-100 200 0 0-200 100 0 0 200 200 0z" horiz-adv-x="800" />

<glyph glyph-name="minus-circled" unicode="&#xe807;" d="M420 770q174 0 297-123t123-297-123-297-297-123-297 123-123 297 123 297 297 123z m252-368l-504 0 0-102 504 0 0 102z" horiz-adv-x="840" />

<glyph glyph-name="minus-squared" unicode="&#xe808;" d="M700 750q42 0 71-29t29-71l0-600q0-40-29-70t-71-30l-600 0q-40 0-70 30t-30 70l0 600q0 42 30 71t70 29l600 0z m-50-450l0 100-500 0 0-100 500 0z" horiz-adv-x="800" />

<glyph glyph-name="bookmark" unicode="&#xe809;" d="M650 779q12 0 24-5 19-8 29-23t11-35v-719q0-19-11-35t-29-23q-10-4-24-4-27 0-47 18l-246 236-246-236q-20-19-46-19-13 0-25 5-18 7-29 23t-11 35v719q0 19 11 35t29 23q12 5 25 5h585z" horiz-adv-x="714.3" />

<glyph glyph-name="down-dir" unicode="&#xe80a;" d="M571 457q0-14-10-25l-250-250q-11-11-25-11t-25 11l-250 250q-11 11-11 25t11 25 25 11h500q14 0 25-11t10-25z" horiz-adv-x="571.4" />

<glyph glyph-name="up-dir" unicode="&#xe80b;" d="M571 171q0-14-10-25t-25-10h-500q-15 0-25 10t-11 25 11 26l250 250q10 10 25 10t25-10l250-250q10-11 10-26z" horiz-adv-x="571.4" />

<glyph glyph-name="left-dir" unicode="&#xe80c;" d="M357 600v-500q0-14-10-25t-26-11-25 11l-250 250q-10 11-10 25t10 25l250 250q11 11 25 11t26-11 10-25z" horiz-adv-x="357.1" />

<glyph glyph-name="right-dir" unicode="&#xe80d;" d="M321 350q0-14-10-25l-250-250q-11-11-25-11t-25 11-11 25v500q0 15 11 25t25 11 25-11l250-250q10-10 10-25z" horiz-adv-x="357.1" />

<glyph glyph-name="heart" unicode="&#xe80e;" d="M1 532q7 111 75 183 94 80 212 70t190-98q38 49 92 79 113 43 217 3t150-140q30-106 10-199t-78-174q-68-94-174-184-53-49-124-103t-93-57q-13 2-28 12t-35 25-24 20q-264 199-348 357-49 96-42 206z" horiz-adv-x="955" />

<glyph glyph-name="heart-circled" unicode="&#xe80f;" d="M0 350q0 207 147 354t353 146 354-146 146-354-146-354-354-146-353 146-147 354z m242 76q-4-60 22-111 47-86 189-195 2-2 13-11t18-14 16-5q27 2 119 86 57 49 94 100 70 96 37 203-20 41-57 63t-82 23q-31 0-60-12-29-15-51-43-39 49-103 54t-114-40q-37-37-41-98z" horiz-adv-x="1000" />

<glyph glyph-name="heart-empty" unicode="&#xe810;" d="M1 521q7 115 79 191l2 0 2 2q88 76 199 76t191-70q32 28 67 45l2 2 2 0q56 23 117 23 88 2 161-43t110-124l0-2 2-4q30-106 10-202t-80-175q-62-88-162-172 0-2-2-2-49-45-107-90-34-25-59-41-33-23-55-23l-6-2-5 2q-28 3-59 29-10 6-21 16t-16 13l-2 0q-246 188-328 340l0 2q-49 94-42 209z m85-10q-6-86 33-162 74-135 303-310l2 0q6-6 18-16t19-14q8-6 15-10 8 2 14 6 22 14 51 37 58 43 105 88 94 80 151 161 107 142 58 298-27 57-78 88t-113 29q-43 0-86-17-39-22-68-57l-32-43-35 43q-52 65-141 73t-161-53q-49-55-55-141z" horiz-adv-x="953" />

<glyph glyph-name="forward" unicode="&#xe811;" d="M540 252q-210 0-332-45t-208-197q4 20 13 53t50 117 96 148 156 117 225 53l0 192 360-322-360-334 0 218z" horiz-adv-x="900" />

<glyph glyph-name="right-open-big" unicode="&#xe812;" d="M13-20l358 370-358 372q-26 26 0 48 26 26 48 0l392-394q24-26 0-50l-392-394q-22-26-48 0-26 22 0 48z" horiz-adv-x="465" />

<glyph glyph-name="left-open-big" unicode="&#xe813;" d="M452-20q26-26 0-48-26-26-48 0l-392 394q-24 24 0 50l392 394q22 26 48 0 26-22 0-48l-358-372z" horiz-adv-x="465" />

<glyph glyph-name="down-open-big" unicode="&#xe814;" d="M63 570l370-356 372 356q22 26 48 0 26-22 0-48l-396-392q-22-22-48 0l-396 392q-26 26 0 48 24 24 50 0z" horiz-adv-x="866" />

<glyph glyph-name="up-open-big" unicode="&#xe815;" d="M804 130l-372 358-370-358q-26-22-50 0-24 24 0 50l396 390q26 26 48 0l396-390q24-26 0-50-26-22-48 0z" horiz-adv-x="864" />

<glyph glyph-name="down-open" unicode="&#xe816;" d="M564 422l-234-224q-18-18-40-18t-40 18l-234 224q-16 16-16 41t16 41q38 38 78 0l196-188 196 188q40 38 78 0 16-16 16-41t-16-41z" horiz-adv-x="580" />

<glyph glyph-name="left-open" unicode="&#xe817;" d="M242 626q14 16 39 16t41-16q38-36 0-80l-186-196 186-194q38-44 0-80-16-16-40-16t-40 16l-226 236q-16 16-16 38 0 24 16 40 206 214 226 236z" horiz-adv-x="341" />

<glyph glyph-name="right-open" unicode="&#xe818;" d="M98 626l226-236q16-16 16-40 0-22-16-38l-226-236q-16-16-40-16t-40 16q-36 36 0 80l186 194-186 196q-36 44 0 80 16 16 41 16t39-16z" horiz-adv-x="340" />

<glyph glyph-name="up-open" unicode="&#xe819;" d="M564 280q16-16 16-41t-16-41q-38-38-78 0l-196 188-196-188q-40-38-78 0-16 16-16 41t16 41l234 224q16 16 40 16t40-16z" horiz-adv-x="580" />

<glyph glyph-name="picture" unicode="&#xe81a;" d="M856 518l-100 0-124 150-214-150-180 0q-52 0-90-39t-38-91l0-160-108 296q-10 38 22 52l680 248q36 10 50-24z m106-90q16 0 27-12t11-28l0-472q0-16-11-28t-27-12l-724 0q-16 0-27 12t-11 28l0 472q0 16 11 28t27 12l724 0z m-56-452l0 162-72 160-166-60-130-132-138 170-92-214 0-86 598 0z" horiz-adv-x="1000" />

<glyph glyph-name="play" unicode="&#xe81b;" d="M486 376q14-10 14-26 0-14-14-24l-428-266q-24-16-41-6t-17 40l0 514q0 30 17 40t41-6z" horiz-adv-x="500" />

<glyph glyph-name="stop" unicode="&#xe81c;" d="M526 650q74 0 74-64l0-470q0-66-74-66l-450 0q-76 0-76 66l0 470q0 36 18 50t58 14l450 0z" horiz-adv-x="600" />

<glyph glyph-name="pause" unicode="&#xe81d;" d="M440 700q90 0 90-64l0-570q0-66-90-66t-90 66l0 570q0 64 90 64z m-350 0q90 0 90-64l0-570q0-66-90-66t-90 66l0 570q0 64 90 64z" horiz-adv-x="530" />

<glyph glyph-name="record" unicode="&#xe81e;" d="M350 700q146 0 248-102t102-248q0-144-102-247t-248-103-248 103-102 247q0 146 102 248t248 102z" horiz-adv-x="700" />

<glyph glyph-name="to-end" unicode="&#xe81f;" d="M412 374q14-10 14-24 0-12-14-22l-362-228q-22-14-36-5t-14 35l0 442q0 26 14 35t36-5z m114 268q74 0 74-58l0-466q0-58-74-58-76 0-76 58l0 466q0 58 76 58z" horiz-adv-x="600" />

<glyph glyph-name="to-start" unicode="&#xe820;" d="M174 350q0 14 14 24l364 228q20 14 34 5t14-35l0-442q0-26-14-35t-34 5l-364 228q-14 10-14 22z m-174 234q0 58 76 58 74 0 74-58l0-466q0-58-74-58-76 0-76 58l0 466z" horiz-adv-x="600" />

<glyph glyph-name="fast-forward" unicode="&#xe821;" d="M866 374q14-10 14-24t-14-22l-372-248q-22-14-37-6t-15 36l0 482q0 28 15 36t37-6z m-454 0q14-10 14-24t-14-22l-360-248q-20-14-36-6t-16 36l0 482q0 28 16 36t36-6z" horiz-adv-x="880" />

<glyph glyph-name="fast-backward" unicode="&#xe822;" d="M0 350q0 14 14 24l374 248q20 14 36 6t16-36l0-482q0-28-16-36t-36 6l-374 248q-14 8-14 22z m454 0q0 14 14 24l360 248q20 14 36 6t16-36l0-482q0-28-16-36t-36 6l-360 248q-14 8-14 22z" horiz-adv-x="880" />

<glyph glyph-name="dot-3" unicode="&#xe823;" d="M110 460q46 0 78-32t32-78q0-44-32-77t-78-33-78 33-32 77q0 46 32 78t78 32z m350 0q46 0 78-32t32-78q0-44-33-77t-77-33-77 33-33 77q0 46 32 78t78 32z m350 0q46 0 78-32t32-78q0-44-32-77t-78-33-78 33-32 77q0 46 32 78t78 32z" horiz-adv-x="920" />

<glyph glyph-name="credit-card" unicode="&#xe824;" d="M982 779q37 0 63-27t26-63v-678q0-37-26-63t-63-27h-893q-36 0-63 27t-26 63v678q0 37 26 63t63 27h893z m-893-72q-7 0-12-5t-6-13v-125h929v125q0 8-5 13t-13 5h-893z m893-714q7 0 13 5t5 13v339h-929v-339q0-7 6-13t12-5h893z m-839 71v72h143v-72h-143z m214 0v72h214v-72h-214z" horiz-adv-x="1071.4" />

<glyph glyph-name="menu" unicode="&#xe825;" d="M875 613h-750c-17 0-33 12-33 29s16 33 33 33h750c17 0 33-12 33-33s-16-29-33-29z m0-292h-750c-17 0-33 12-33 33s12 34 33 34h750c17 0 33-13 33-34s-16-33-33-33z m0-296h-750c-17 0-33 13-33 33s12 34 33 34h750c17 0 33-13 33-34s-16-33-33-33z" horiz-adv-x="1000" />

<glyph glyph-name="ruler-combine" unicode="&#xe826;" d="M892 800h-784c-29 0-58-25-58-58v-784c0-29 25-58 58-58h284c29 0 58 25 58 58v446h446c29 0 54 25 54 59v279c0 29-29 58-58 58z m-9-333h-187v91c0 17-13 34-33 34s-30-17-30-34v-91h-187v91c0 17-13 34-33 34s-30-17-30-34v-91h-91c-17 0-34-13-34-34s13-33 34-33h91v-187h-91c-17 0-34-13-34-34s13-33 34-33h91v-188h-266v780h771v-271z" horiz-adv-x="1000" />

<glyph glyph-name="filter" unicode="&#xe827;" d="M542-46c-4 0-13 0-17 4l-83 21c-34 8-54 38-54 71v242c0 4 0 4-5 8l-266 267c-17 12-25 29-25 50v66c0 42 33 71 75 71h666c42 0 75-33 75-71v-66c0-21-8-38-20-50l-267-267c0 0-4-4-4-8v-263c0-21-9-42-29-58-13-9-30-17-46-17z m-375 738c-4 0-13-4-13-9v-66c0-4 0-4 4-9l267-266c13-13 21-34 21-50v-242c0-4 4-8 8-8l84-21c4 0 8 0 8 0s4 4 4 8v263c0 21 8 37 21 50l267 266c0 0 4 5 4 9v66c0 5-4 9-9 9h-666z" horiz-adv-x="1000" />

<glyph glyph-name="box-iso" unicode="&#xe828;" d="M871 613l-350 154c-13 8-29 8-46 0l-346-154c-21-9-37-30-37-50v-425c0-21 12-42 33-50l350-155c8-4 17-4 21-4s17 0 21 4l350 155c21 8 33 29 33 50v425c8 20-8 41-29 50z m-371 100l300-134-112-50c0 0 0 0 0 0l-300 134 112 50z m0-267l-300 133 113 50 300-133-113-50z m-342 83l313-137v-392l-313 142v387z m375-525v388l125 54v-117c0-16 13-33 34-33s33 12 33 33v146l125 54v-387l-317-138z" horiz-adv-x="1000" />

<glyph glyph-name="plus" unicode="&#xe829;" d="M792 392h-250v250c0 25-17 41-42 41s-42-16-42-41v-250h-250c-25 0-41-17-41-42s16-42 41-42h250v-250c0-25 17-41 42-41s42 16 42 41v250h250c25 0 41 17 41 42s-16 42-41 42z" horiz-adv-x="1000" />

<glyph glyph-name="minus" unicode="&#xe82a;" d="M792 308h-584c-25 0-41 17-41 42s16 42 41 42h584c25 0 41-17 41-42s-16-42-41-42z" horiz-adv-x="1000" />

<glyph glyph-name="resize" unicode="&#xe82b;" d="M250 788v62h-219c-17 0-31-14-31-31v-219h63v143l290-290 44 44-290 291h143z m719 62h-219v-62h143l-290-291 44-44 291 290v-143h62v219c0 17-14 31-31 31z m-31-893l-291 290-44-44 290-291h-143v-62h219c17 0 31 14 31 31v219h-62v-143z m-585 290l-290-290v143h-63v-219c0-17 14-31 31-31h219v62h-143l290 291-44 44z" horiz-adv-x="1000" />

<glyph glyph-name="list" unicode="&#xe82c;" d="M333 575h500c13 0 25 13 25 25s-12 25-25 25h-500c-12 0-25-12-25-25s13-25 25-25z m-166 0c8 0 12 4 21 8 8 9 8 25-5 34-8 12-25 8-33 0l0 0c-12-13-8-25 0-38 4-4 13-4 17-4z m0-250c8 0 12 4 21 8 8 9 8 25-5 34-8 8-25 8-33-4l0 0c-8-9-8-25 4-34 0-4 9-4 13-4z m-17-208l0 0c-8-13-8-25 0-38 4-4 13-8 17-8 8 0 12 4 21 8 8 9 8 25 0 34-13 16-30 16-38 4z m683 258h-500c-12 0-25-12-25-25s13-25 25-25h500c13 0 25 13 25 25s-12 25-25 25z m0-250h-500c-12 0-25-12-25-25s13-25 25-25h500c13 0 25 13 25 25s-12 25-25 25z" horiz-adv-x="1000" />

<glyph glyph-name="view-grid" unicode="&#xe82d;" d="M850-50h-242c-29 0-50 21-50 50v242c0 29 21 50 50 50h242c29 0 50-21 50-50v-242c0-29-21-50-50-50z m0 292h-242v-242h242v242z m-458-292h-242c-29 0-50 21-50 50v242c0 29 21 50 50 50h242c29 0 50-21 50-50v-242c0-29-21-50-50-50z m-267 50l267 0v242h-242v-242h-25z m725 408h-242c-29 0-50 21-50 50v242c0 29 21 50 50 50h242c29 0 50-21 50-50v-242c0-29-21-50-50-50z m-267 50l25 0v0h-25z m25 0l242 0v242l-242 0v-242z m-216-50h-242c-29 0-50 21-50 50v242c0 29 21 50 50 50h242c29 0 50-21 50-50v-242c0-29-21-50-50-50z m-267 50l25 0v0h-25z m25 0l242 0v242l-242 0v-242z" horiz-adv-x="1000" />

<glyph glyph-name="online-shopping" unicode="&#xe82e;" d="M917 808h-834c-46 0-83-37-83-83v-583c0-46 37-84 83-84h292c-1-33-7-86-31-111-9-9-19-14-31-14-12 0-21-9-21-21 0-11 9-20 21-20h375c11 0 20 9 20 20 0 12-9 21-20 21-13 0-23 5-32 14-24 25-30 78-31 111h292c46 0 83 38 83 84v583c0 46-37 83-83 83z m-531-875c25 39 30 95 31 125h166c1-31 6-86 31-125h-228z m572 209c0-23-18-42-41-42h-834c-23 0-41 19-41 42v83h916v-83z m0 125h-916v458c0 23 18 42 41 42h834c23 0 41-19 41-42v-458z m-270 291h-71l-57 114c-5 10-17 14-28 9-10-5-14-17-9-28l48-95h-141l47 95c5 11 1 23-9 28-11 5-23 1-28-9l-57-114h-70c-12 0-21-9-21-20s9-21 21-21h25l34-135c4-19 21-32 40-32h176c19 0 36 13 40 32l34 135h26c11 0 20 9 20 21s-9 20-20 20z m-100-166h-176l-31 125h238l-31-125z" horiz-adv-x="1000" />

<glyph glyph-name="secure" unicode="&#xe82f;" d="M361 300c0 42-59 74-137 74s-137-32-137-74 59-73 137-73 137 32 137 73z m-245 0c0 19 41 45 108 45s108-26 108-45-41-44-108-44-108 26-108 44z m582 110c8 0 14 7 14 15s-6 15-14 15h-285c-8 0-15-7-15-15s7-15 15-15z m105-67c-4 3-10 3-14 0l-121-67c-5-2-7-7-7-12v-28c0-44 12-87 34-125 23-37 56-68 94-88 5-2 10-2 14 0 39 20 71 51 94 88 23 38 35 81 35 125v28c0 5-3 10-8 12z m99-107c0-38-10-76-30-109-19-31-45-57-76-75-31 18-57 44-76 75-20 33-30 71-30 109v19l106 59 106-59z m90 81l-102 56v332c0 25-20 45-45 45h-800c-25 0-45-20-45-45v-515c0-25 20-45 45-45h88c8 0 15 7 15 15s-7 14-15 14h-88c-9 0-16 7-16 16v328h831v-128l-57 31c-4 3-10 3-14 0l-125-69h-108c-8 0-15-7-15-15s7-14 15-14h55l-11-6c-5-3-8-8-8-13v-68c0-21 2-41 6-62h-406c-9 0-15-6-15-14s6-15 15-15h414c8-26 20-51 35-75 31-50 76-89 130-114 16-8 34-8 51 0 48 22 90 58 121 102 5 6 3 15-3 20-7 5-16 3-21-3-28-40-66-72-110-93-8-4-18-4-26 0-98 46-162 146-162 254v59l175 97c60-33 140-78 175-97v-59c0-39-8-77-24-113-3-7 0-16 7-19 8-4 16 0 20 7 17 40 26 82 26 125v68c0 5-3 10-8 13z m-963 230v50h639c9 0 15 7 15 15s-6 14-15 14h-639v79c0 9 7 16 16 16h800c9 0 15-7 15-16v-79h-133c-8 0-15-6-15-14s7-15 15-15h133v-50z" horiz-adv-x="1000" />

<glyph glyph-name="card" unicode="&#xe830;" d="M870 787h-739c-73 0-131-59-131-130v-425c0-72 58-132 131-132h391v-115c0-40 32-72 72-72h217c41 0 73 32 73 72v117c65 7 116 62 116 130v425c0 72-59 130-130 130z m-24-801c0-19-16-34-35-34h-217c-19 0-34 15-34 34v203h286v-203z m-221 242v73c0 40 35 73 78 73 43 0 79-33 79-73v-73h-1-156z m336 4c0-46-33-84-77-91v68c0 11-9 19-19 19h-46v73c0 62-53 111-117 111-64 0-116-49-116-111v-73h-46c-11 0-19-8-19-19v-70h-392c-51 0-92 42-92 93v257h1 923v-257z m0 295h-923v66h923v-66z m0 104h-923v26c0 51 42 92 93 92h737c51 0 93-41 93-92v-26z m-828-418h305c10 0 19 8 19 19 0 11-9 19-19 19h-305c-11 0-19-8-19-19 0-11 8-19 19-19z m550-168v-43c0-11 9-19 19-19 11 0 19 8 19 19v43c25 8 43 30 43 58 0 34-27 61-62 61-34 0-61-27-61-61 0-28 17-50 42-58z m19 81c13 0 24-10 24-23 0-13-11-24-24-24-13 0-23 11-23 24 0 13 10 23 23 23z" horiz-adv-x="1000" />

<glyph glyph-name="worldwide-shipping" unicode="&#xe831;" d="M938 381c0 214-174 387-387 387-159 0-297-96-356-236h-8c-28 0-51-23-51-51v-244c0-28 23-52 51-52h244c28 0 51 24 51 52v244c0 28-23 51-51 51h-43c40 99 110 162 147 190v-682c-25 20-66 56-102 108-5 7-15 9-22 4-7-5-9-15-4-22 31-44 65-78 92-100-79 11-152 49-208 108-5 7-15 7-22 1-6-6-6-16 0-22 72-77 173-123 282-123 213 0 387 174 387 387z m-32 16h-132c-4 130-65 225-117 283-5 6-15 7-22 1-6-6-7-15-1-22 48-54 104-142 109-262h-136c-8 0-15-7-15-16s7-15 15-15h136c-5-133-76-248-177-326v696c184-8 332-155 340-339z m-455 84v-244c0-11-9-20-20-20h-244c-11 0-20 9-20 20v244c0 11 9 20 20 20h244c11 0 20-9 20-20z m-97 51h-125c51 109 152 184 270 201-44-37-108-104-145-201z m249-502c61 51 165 164 171 336h132c-8-172-137-312-303-336z m-373 389c0 8 7 15 16 15h126c9 0 16-7 16-15s-7-16-16-16h-126c-9 0-16 7-16 16z m-134 8c9 0 16-7 16-16s-7-15-16-15h-13c-8 0-15 7-15 15s7 16 15 16z m-13-135h-35c-9 0-16 7-16 16s7 16 16 16h35c9 0 16-7 16-16s-7-16-16-16z m8 209h-75c-9 0-16 7-16 16s7 15 16 15h75c8 0 15-7 15-15s-7-16-15-16z m31-298c0-9-7-16-15-16h-11c-9 0-16 7-16 16s7 15 16 15h11c8 0 15-7 15-15z" horiz-adv-x="1000" />

<glyph glyph-name="megaphone" unicode="&#xe832;" d="M758 519c61 50 40 148-36 169-20 5-41 4-60-3l-60 105c-25 42-86 43-112 2-75-118-174-219-292-295-6-4-9-13-5-21 1-1 101-174 102-176 4-7 14-10 21-5 8 4 10 14 6 21l-94 163c112 75 212 174 288 296 14 22 46 21 59-1l217-375c12-23-3-51-29-52-144-5-285-42-414-108 0 0-146-85-156-91-27-15-60-6-75 20l-79 138c-15 26-6 59 20 74l95 55c7 5 10 14 6 22-5 7-14 10-22 5l-95-55c-41-23-55-76-31-117l79-137c23-41 76-55 117-32l4 2 97-169c14-24 46-33 70-19l34 20c24 14 33 45 19 70l-70 120c-4 7-13 10-21 5s-10-13-6-21l70-120c5-9 2-21-8-27l-34-19c-9-6-21-3-26 7l-98 169 125 72c122 63 259 100 401 105 49 2 78 56 54 98z m-4 108c15-27 10-60-12-80l-64 110c28 8 60-3 76-30z m152 69l-40-23c-7-4-17-2-21 6-5 7-2 17 5 21l41 23c7 5 17 2 21-5 5-8 2-17-6-22z m-173 89l9 37c3 9 11 14 20 11 8-2 13-10 11-19l-10-37c-2-8-11-13-19-11-9 3-14 11-11 19z m204-255c-2-7-8-12-15-12-3 0-1 0-41 10-8 3-13 11-11 20s11 13 19 11l37-10c8-3 13-11 11-19z" horiz-adv-x="1000" />

<glyph glyph-name="box-package" unicode="&#xe833;" d="M938 731v-80c0-43-35-79-79-79h-30c-8 0-15 7-15 16s7 16 15 16h30c26 0 47 21 47 47v80c0 26-21 47-47 47h-781c-26 0-47-21-47-47v-80c0-26 21-47 47-47h651c8 0 15-7 15-16s-7-16-15-16h-631v-541c0-25 21-47 47-47h648c26 0 47 22 47 47v473c0 9 7 16 16 16s15-7 15-16v-473c0-43-35-78-78-78h-648c-43 0-79 35-79 78v542c-37 6-66 39-66 78v80c0 43 35 78 78 78h781c44 0 79-35 79-78z m-579-387c-34 0-62 28-62 63v19c0 35 28 63 62 63h219c35 0 63-28 63-63v-19c0-35-28-63-63-63z m0 31h219c17 0 31 14 31 32v19c0 17-14 31-31 31h-219c-17 0-31-14-31-31v-19c0-18 14-32 31-32z m-46-199h-110c-8 0-15-7-15-15s7-16 15-16h110c8 0 15 7 15 16s-7 15-15 15z m0-78h-110c-8 0-15-7-15-16s7-15 15-15h110c8 0 15 7 15 15s-7 16-15 16z" horiz-adv-x="1000" />

<glyph glyph-name="delivery-box" unicode="&#xe834;" d="M158 280v-294c0-28-22-51-50-51h-36c-8 0-15 7-15 16s7 16 15 16h36c11 0 19 8 19 19v317c0 11-8 19-19 19h-58c-10 0-19-8-19-19v-295c0-9-7-16-15-16s-16 7-16 16v295c0 28 23 51 50 51h58c24 0 44-17 49-39l120 69c23 13 49 20 75 20h142c46 0 90-35 90-94 0-40-25-74-63-86l-179-57c-8-3-17 2-19 10-3 8 2 17 10 20l178 56c25 8 42 31 42 57v4c0 32-27 59-59 59h-142c-21 0-41-5-59-16z m651 46l-152-119c-8-6-19-10-29-10h-87c-9 0-16-7-16-15s7-16 16-16h87c17 0 35 6 49 17l151 118c34 27 84-1 79-44-2-14-9-25-20-33l-260-194c-20-14-43-22-67-22h-343c-9 0-16-7-16-16s7-16 16-16h343c31 0 61 10 85 29l261 194c18 13 29 32 32 53 9 71-73 118-129 74z m-666 67c8 0 15 7 15 15v352c0 19 16 35 35 35h176v-150c0-32 34-52 63-37l53 28c3 2 7 2 11 0l53-28c28-15 62 5 62 37v101c0 9-7 16-15 16s-16-7-16-16v-101c0-8-9-14-16-10l-54 29c-12 6-27 6-40 0l-53-29c-7-4-17 2-17 10v150h386c19 0 34-16 34-35v-352c0-8 7-15 16-15s16 7 16 15v352c0 37-30 66-66 66h-593c-36 0-66-29-66-66v-352c0-8 7-15 16-15z" horiz-adv-x="1000" />

<glyph glyph-name="schedule" unicode="&#xe835;" d="M938 364v-371c0-35-28-63-63-63h-371c-35 0-63 28-63 63v371c0 34 28 62 63 62h309v149h-682c-9 0-16 7-16 16s7 16 16 16h682v93c0 26-21 47-47 47h-133v-40c0-8-7-15-16-15s-15 7-15 15v40h-164v-40c0-8-7-15-16-15s-16 7-16 15v40h-164v-40c0-8-7-15-15-15s-16 7-16 15v40h-133c-26 0-47-21-47-47v-571c0-25 21-47 47-47h286c9 0 16-7 16-15s-7-16-16-16h-286c-43 0-78 35-78 78v571c0 43 35 78 78 78h133v39c0 8 7 15 16 15s15-7 15-15v-39h164v39c0 8 7 15 16 15s16-7 16-15v-39h164v39c0 8 7 15 15 15s16-7 16-15v-39h133c43 0 78-35 78-78v-274h31c35 0 63-28 63-62z m-32 0c0 17-14 31-31 31h-240v-95c0-8 7-15 15-15h81c8 0 15 7 15 15v50c0 9 7 16 16 16s15-7 15-16v-50c0-26-21-47-46-47h-81c-25 0-46 21-46 47v95h-100c-17 0-31-14-31-31v-371c0-18 14-32 31-32h371c17 0 31 14 31 32z m-611 17c0-8-7-15-16-15h-105c-9 0-16 7-16 15v106c0 8 7 15 16 15h105c9 0 16-7 16-15z m-31 90h-74v-74h74z m31-199v-106c0-8-7-15-16-15h-105c-9 0-16 7-16 15v106c0 9 7 16 16 16h105c9 0 16-7 16-16z m-31-16h-74v-74h74z" horiz-adv-x="1000" />

<glyph glyph-name="smartphone" unicode="&#xe836;" d="M586 215c26 0 47 21 47 47v98c0 26-21 47-47 47h-23l-83 81c-6 6-16 6-22 0l-83-81h-23c-26 0-47-21-47-47v-98c0-26 21-47 47-47z m-117 240l49-48h-99z m-133-193v98c0 8 7 15 16 15h234c9 0 16-7 16-15v-98c0-8-7-15-16-15h-234c-9 0-16 7-16 15z m426 264v-535c0-44-35-79-78-79h-430c-43 0-78 35-78 79v535c0 8 7 15 15 15s16-7 16-15v-535c0-26 21-47 47-47h430c25 0 47 21 47 47v58h-448c-8 0-15 7-15 16s7 16 15 16h448v445c0 8 7 15 15 15s16-7 16-15z m0 246v-122c0-47-38-85-85-85-29 0-54 14-70 36-33-48-104-48-138 0-16-22-41-36-70-36-46 0-84 38-84 85 0 8 6 15 15 15s16-7 16-15c0-30 24-54 53-54s54 24 54 54c0 8 7 15 16 15s15-7 15-15c0-30 25-54 54-54s54 24 54 54c0 8 7 15 15 15s16-7 16-15c0-30 24-54 54-54s54 24 54 54v122c0 26-22 47-47 47h-430c-26 0-47-21-47-47v-122c0-30 24-54 54-54 8 0 15-7 15-16s-7-15-15-15c-47 0-85 38-85 85v122c0 43 35 78 78 78h430c43 0 78-35 78-78z m-313-787c-8 0-15 7-15 15s7 16 15 16h39c9 0 16-7 16-16s-7-15-16-15z" horiz-adv-x="1000" />

<glyph glyph-name="exchange" unicode="&#xe837;" d="M475-39l22-22c10-10 3-27-11-27-4 0-8 2-11 5l-48 49c-7 6-7 16 0 22l48 49c6 6 16 6 22 0 7-6 7-16 0-22l-22-22c212 3 382 176 382 388 0 88-28 171-82 240-5 6-4 16 3 21 7 6 16 5 22-2 58-75 89-164 89-259 0-230-185-416-414-420z m274 696c14 0 21 18 10 27-7 7-16 6-22 0-10-10-2-27 12-27z m-366-367h-47c-9 0-16-7-16-16s7-16 16-16h47c8 0 15 7 15 16s-7 16-15 16z m260-114c0 9-7 16-16 16h-316c-18 0-32 14-32 31v317c0 17 14 31 32 31h80v-110c0-11 12-19 23-13l55 29 55-29c10-6 23 2 23 13v55c0 9-7 16-16 16s-15-7-15-16v-29l-40 21c-4 3-10 3-15 0l-39-21v84h205c17 0 31-14 31-31v-278c0-8 7-15 16-15s16 7 16 15v278c0 34-29 62-63 62h-316c-35 0-63-28-63-62v-317c0-34 28-62 63-62h316c9 0 16 7 16 15z m-563 205c0 212 171 385 382 389l-22-22c-10-10-3-27 11-27 4 0 8 2 11 5l49 49c6 6 6 16 0 22l-49 48c-6 7-16 7-22 0-6-6-6-16 0-22l22-22c-229-3-413-190-413-420 0-94 31-184 89-258 5-7 15-8 22-3 7 5 8 15 2 22-53 69-82 152-82 239z m98-281c-6-6-7-15 1-22 6-6 16-6 22 0 6 7 5 16-1 22-7 7-17 6-22 0z" horiz-adv-x="1000" />

<glyph glyph-name="box-1" unicode="&#xe838;" d="M742-21c0-9-7-16-15-16h-649c-43 0-78 35-78 78v680c0 43 35 78 78 78h680c43 0 78-35 78-78v-213c0-8-7-15-16-15s-15 7-15 15v213c0 26-21 47-47 47h-446v-176c0-12 13-20 23-14l62 33c14 7 30 7 44 0l62-33c11-6 23 2 23 14v117c0 9 7 16 16 16s15-7 15-16v-117c0-36-37-58-69-42l-62 33c-4 3-10 3-14 0l-62-33c-31-16-69 6-69 42v176h-203c-26 0-47-21-47-47v-680c0-25 21-47 47-47h649c8 0 15-7 15-15z m159 197l-91-121c-25-33-75-33-100 0l-92 121c-54 71-47 170 16 233 70 70 182 70 252 0 62-63 69-162 15-233z m-141 254c-121 0-190-139-117-235l92-121c12-16 37-16 50 0l91 121c73 96 5 235-116 235z m65-81c57-58 16-157-65-157-82 0-123 99-65 157 36 35 94 35 130 0z m-65-5c-54 0-81-65-43-103 24-24 62-24 86 0 38 38 11 103-43 103z m-475-151c0 9-7 16-16 16h-111c-8 0-15-7-15-16s7-16 15-16h111c9 0 16 7 16 16z m-8-103c8 4 10 14 6 21-4 8-13 11-21 7-8-5-11-14-7-22 5-7 14-10 22-6z m-119 29c-8 0-15-7-15-15s7-16 15-16h51c8 0 15 7 15 16s-7 15-15 15z" horiz-adv-x="1000" />

<glyph glyph-name="credit-card-1" unicode="&#xe839;" d="M917 719h-834c-46 0-83-37-83-84v-225c0-9 8-16 17-16h871c9 0 16 7 16 16s-7 17-16 17h-855v108h855c9 0 16 8 16 17s-7 17-16 17h-855v66c0 28 23 50 50 50h834c27 0 50-22 50-50v-570c0-28-23-50-50-50h-834c-27 0-50 22-50 50v250c0 9-7 16-16 16s-17-7-17-16v-250c0-46 37-84 83-84h834c46 0 83 38 83 84v570c0 47-37 84-83 84z m-765-481h140c9 0 16 7 16 16s-7 17-16 17h-140c-9 0-17-8-17-17s8-16 17-16z m0-105h140c9 0 16 8 16 17s-7 17-16 17h-140c-9 0-17-8-17-17s8-17 17-17z" horiz-adv-x="1000" />

<glyph glyph-name="store" unicode="&#xe83a;" d="M891 321v-331c0-43-35-78-78-78h-688c-43 0-78 35-78 78v331c0 8 7 15 16 15s15-7 15-15v-331c0-25 21-46 47-46h170v263c0 43 35 78 78 78h192c43 0 78-35 78-78v-201c0-9-7-16-16-16s-16 7-16 16v201c0 26-21 47-46 47h-192c-26 0-47-21-47-47v-263h127v246c0 8 7 15 16 15s15-7 15-15v-246h329c25 0 46 21 46 46v331c0 8 7 15 16 15s16-7 16-15z m-789 279c0-9 7-16 15-16 850 0 808-1 814 4 4 2 6 6 6 10 1 6 7-9-102 243-3 5-8 9-15 9h-703c-6 0-12-4-14-9l-102-235c-1-4-1 3-1-103 0-71 58-129 129-129 49 0 91 27 113 68 49-90 178-90 227 0 49-90 177-90 226 0 22-41 65-68 114-68 71 0 129 58 129 129 0 9-7 16-16 16s-16-7-16-16c0-54-43-98-97-98s-98 44-98 98c0 9-7 16-16 16s-15-7-15-16c0-54-44-98-98-98s-98 44-98 98c0 9-7 16-15 16s-16-7-16-16c0-54-44-98-97-98-53 0-98 43-98 99 0 8-7 15-16 15s-15-7-15-15c0-56-45-99-98-99-54 0-98 44-98 98v94l97 222h682l88-203h-781c-8 0-15-7-15-16z" horiz-adv-x="1000" />

<glyph glyph-name="screen" unicode="&#xe83b;" d="M875 805h-812c-35 0-63-28-63-62v-563c0-34 28-62 63-62h335v-61c0-9 7-16 16-16s16 7 16 16v57h78v-57c0-9 7-16 15-16s16 7 16 16v61h336c35 0 63 28 63 62v563c0 34-28 62-63 62z m31-625c0-17-14-31-31-31h-812c-18 0-32 14-32 31v563c0 17 14 31 32 31h812c17 0 31-14 31-31z m-204-212c-2-8-11-12-19-10-131 41-298 41-428 0-9-2-17 2-20 10-2 9 2 17 10 20 137 43 310 43 447 0 8-3 13-11 10-20z m-233 517c-38-44-110-17-110 41 0 8 7 15 16 15s16-7 16-15c0-17 14-31 31-31s31 14 31 31c0 8 7 15 16 15s15-7 15-15c0-17 14-31 32-31s31 14 31 31c0 8 7 15 16 15s15-7 15-15c0-17 14-31 31-31 9 0 16-7 16-16s-7-16-16-16c-18 0-35 9-46 22-25-29-69-29-94 0z m203 119v-71c0-9-7-16-16-16s-15 7-15 16v71c0 17-14 31-32 31h-281c-17 0-31-14-31-31v-78c0-17 14-31 31-31 9 0 16-7 16-16s-7-16-16-16c-11 0-22 3-31 9v-149c0-18 14-32 31-32h281c18 0 32 14 32 32v117c0 9 7 16 15 16s16-7 16-16v-117c0-35-28-63-63-63h-281c-34 0-62 28-62 63v281c0 34 28 62 62 62h281c35 0 63-28 63-62z m-152-199c8 0 15-7 15-16s-7-16-15-16h-102c-9 0-16 7-16 16s7 16 16 16z" horiz-adv-x="1000" />

<glyph glyph-name="buy-button" unicode="&#xe83c;" d="M301 103c6-6 6-16 0-22l-19-20c-3-3-7-4-11-4-14 0-21 17-11 26l19 20c6 6 16 6 22 0z m237 102h-429c-43 0-78 35-78 78v294c0 43 35 78 78 78h633c43 0 78-35 78-78v-202c0-9 7-16 16-16s16 7 16 16v202c0 60-49 109-110 109h-633c-60 0-109-49-109-109v-294c0-60 49-109 109-109h429c9 0 16 7 16 16s-7 15-16 15z m-259 552c3-3 7-4 11-4 14 0 21 17 11 27l-19 19c-6 6-16 6-22 0-7-6-7-16 0-22z m147 30c8 0 15 7 15 16v27c0 9-7 16-15 16s-16-7-16-16v-27c0-9 7-16 16-16z m147-30l19 20c6 6 6 16 0 22-6 6-16 6-22 0l-19-19c-6-7-6-16 0-23 6-6 16-6 22 0z m-147-684c-9 0-16-7-16-16v-27c0-9 7-16 16-16s15 7 15 16v27c0 9-7 16-15 16z m506-50l-105 88 44 44c8 8 4 22-7 26l-244 73c-12 3-23-8-20-20l73-244c4-11 18-15 26-7l56 56c6 6 6 16 0 22-6 6-16 6-22 0l-37-37-57 192 191-58-37-37c-6-6-6-17 1-23l105-88-55-55-30 36c-6 7-16 8-22 2-7-5-8-15-2-22l41-49c6-7 16-7 23-1l79 79c6 7 6 17-1 23z m-651 407c14-12 23-29 23-49 0-9-7-16-16-16s-15 7-15 16c0 19-15 34-34 34h-53v-67h53c9 0 16-7 16-16s-7-16-16-16h-68c-9 0-16 7-16 16 0 21 0 175 0 196 0 9 7 16 16 16h68c60 0 88-75 42-114z m-8 49c0 19-15 34-34 34h-53v-67h53c19 0 34 15 34 33z m94 65c-9 0-16-7-16-16v-137c0-41 34-75 75-75s74 34 74 75v137c0 9-7 16-15 16s-16-7-16-16v-137c0-24-19-43-43-43s-43 19-43 43v137c0 9-7 16-16 16z m469-225c-9 0-16-7-16-16v-20c0-8 7-15 16-15s16 7 16 15v20c0 9-7 16-16 16z m-214-3c9 0 16 7 16 16v94l56 94c5 8 2 17-5 22-7 4-17 2-21-6l-46-76-45 76c-5 8-14 10-22 6-7-5-10-14-5-22l56-94v-94c0-9 7-16 16-16z" horiz-adv-x="1000" />

<glyph glyph-name="boat" unicode="&#xe83d;" d="M90-118c-25 0-48 15-57 39-4 8-13 12-22 9-8-4-13-14-9-22 12-31 40-53 73-58 33-5 66 7 87 32 18-21 45-33 73-33 27 0 54 12 72 33 18-21 45-33 72-33 28 0 55 12 73 33 21-25 54-37 87-32 33 5 60 27 73 58 3 8-1 18-9 22-9 3-19-1-22-10-9-22-30-37-54-38-24-1-47 12-58 34l141 397c2 8 0 16-7 20l-33 22v273c0 9-7 16-17 16h-79v94c0 9-7 16-16 16h-67v79c0 10-8 17-17 17h-134c-9 0-17-7-17-17v-79h-67c-9 0-17-7-17-16v-94h-79c-9 0-16-7-16-16v-273l-33-22c-7-4-10-12-7-20l140-398c-10-20-31-33-54-33z m345 36c-1-1-1-1-1-2-10-21-32-34-56-34-23 1-45 14-54 36v561l250-167z m-178 899h100v-63h-100z m-84-96h268v-77h-268z m-96-177h122v-31h-122z m0-65h139c9 0 17 8 17 17v65c0 9-8 16-17 16h-139v34h460v-234l-221 147 0 0 0 0 0 0c0 1-1 1-2 1 0 0 0 1 0 1-1 0-2 0-2 0 0 0 0 0 0 0-1 1-2 1-2 1-1 0-1 0-1 0-1 0-1 0-2 0h0c-1 0-2 0-2 0 0 0-1 0-1 0 0 0-1 0-2-1 0 0 0 0 0 0-1 0-1 0-2 0l0-1c-1 0-2 0-2-1l0 0 0 0-1 0-220-147z m213 0v-561c-10-22-31-36-55-36-23 0-45 13-55 34-1 1-1 1-1 2l-139 394z m0 0" horiz-adv-x="1000" />

<glyph glyph-name="ecommerce" unicode="&#xe83e;" d="M508 850h-420c-48 0-87-39-87-87v-827c0-48 39-87 87-87h420c48 0 88 39 88 87v827c0 48-40 87-88 87z m-476-166h532v-615h-532z m56 135h420c31 0 56-25 56-56v-48h-532v48c0 31 25 56 56 56z m420-939h-420c-31 0-56 25-56 56v102h532v-102c0-31-25-56-56-56z m0 0m-147 94h-126c-9 0-16-7-16-16 0-8 7-15 16-15h126c9 0 16 7 16 15 0 9-7 16-16 16z m0 0m-27 414l-52-43-17 21c-6 6-16 7-23 2s-7-16-1-23l27-32c6-6 15-7 22-2l64 52c4 4 6 9 5 15-1 5-5 10-10 12-5 2-11 1-15-2z m0 0m-36 100c-76 0-139-62-139-138s63-139 139-139 139 62 139 139c0 76-62 138-139 138z m0-246c-59 0-107 48-107 108 0 59 48 107 107 107 59 0 107-48 107-107 0-60-48-108-107-108z m0 0m209 123h-23c-9 0-16-7-16-15 0-9 7-16 16-16h23c9 0 16 7 16 16 0 8-7 15-16 15z m0 0m-395-31c9 0 16 7 16 16 0 8-7 15-16 15h-23c-9 0-16-7-16-15 0-9 7-16 16-16z m0 0m389-38l-33 11c-8 3-17-1-20-9-3-8 2-17 10-20l33-11c5-2 11-1 15 3 4 3 6 9 5 14-1 6-5 10-10 12z m0 0m-363 125l-33 11c-5 2-11 1-15-2-4-4-6-10-5-15 1-6 5-10 10-12l33-11c8-3 17 1 20 9 3 8-2 17-10 20z m0 0m327-35c1 0 3 0 4 0l33 11c6 1 10 6 11 11 1 6 0 11-4 15-5 4-10 5-16 4l-33-11c-7-2-12-9-11-17 1-8 8-13 16-13z m0 0m-338-73l-33-11c-6-1-10-6-11-11-1-6 1-11 5-15 4-4 10-5 15-4l33 11c8 2 13 11 10 19-2 9-11 13-19 11z m0 0" horiz-adv-x="1000" />

<glyph glyph-name="location" unicode="&#xe83f;" d="M118 149l276-294c3-4 8-6 13-6s9 2 12 6l276 294c43 45 74 95 93 147 19 53 28 109 24 165-7 102-50 199-123 272-75 75-176 117-282 117-107 0-208-42-283-117-73-73-116-170-123-272-4-56 5-112 24-165 19-52 51-102 93-147z m-83 310c6 94 46 183 113 250 68 68 162 107 259 107 97 0 190-39 258-107 67-67 107-156 113-250 3-52-4-103-22-151-18-48-46-94-86-136l-263-281-264 281c-39 42-68 88-86 136-18 48-25 99-22 151z m0 0m372-284c155 0 282 130 282 289s-127 290-282 290c-156 0-282-130-282-289 0-160 126-290 282-290z m0 545c136 0 248-115 248-255s-112-256-248-256c-137 0-248 115-248 256s111 255 248 255z m0 0m-46-342c7-6 17-6 24 0l155 148c7 7 7 18 1 24-7 7-18 7-24 1l-144-137-76 76c-7 7-17 7-24 0-7-6-7-17 0-24z m0 0" horiz-adv-x="1000" />

<glyph glyph-name="email" unicode="&#xe840;" d="M1002 749c0 55-45 100-100 100h-801c-56 0-100-45-101-100v0c0 0 0-1 0-1v-508c0-56 45-101 101-101h801c55 0 100 45 100 101v508c0 0 0 1 0 1 0 0 0 0 0 0z m-901 66h801c33 0 61-25 66-58l-467-285-466 285c4 33 32 58 66 58z m801-642h-801c-37 0-67 30-67 67v478l458-280c6-3 13-3 18 0l459 280v-478c0-37-30-67-67-67z m0 0" horiz-adv-x="1000" />

<glyph glyph-name="security" unicode="&#xe841;" d="M769 648l-376 200c-5 3-12 3-18 0l-365-201c-6-3-10-9-10-16v-262c0-215 128-409 325-496l51-22c4-2 10-2 15 0l57 25c200 84 331 281 331 499v256c0 7-4 13-10 17z m-27-273c0-203-122-386-309-465l0 0-50-21-43 19c-184 80-302 261-302 461v251l347 190 357-190z m0 0m-496 6c-6 8-18 9-26 3-8-7-9-19-2-27l99-116c6-7 18-8 26-2l230 187c8 7 9 19 3 27-7 8-18 9-26 2l-217-175z m0 0" horiz-adv-x="1000" />

<glyph glyph-name="left-arrow" unicode="&#xe842;" d="M12 322c0 0 0 0 0 0l204-203c15-15 40-15 55 0 15 16 15 40 0 56l-137 136h827c21 0 39 18 39 39 0 22-18 39-39 39h-827l137 136c15 16 15 40 0 56-15 15-40 15-55 0l-204-203c0 0 0 0 0 0-16-15-16-40 0-56z" horiz-adv-x="1000" />

<glyph glyph-name="right-arrow" unicode="&#xe843;" d="M989 378c0 0 0 0 0 0l-205 203c-15 15-40 15-55 0-15-16-15-40 0-56l137-136h-827c-21 0-39-17-39-39 0-22 18-39 39-39h827l-137-136c-15-16-15-40 0-56 15-15 40-15 55 0l205 203c0 0 0 0 0 0 15 16 15 40 0 56z" horiz-adv-x="1000" />

<glyph glyph-name="search" unicode="&#xe844;" d="M900 0l-158 158c54 63 83 146 83 234 0 204-167 371-367 371s-370-167-370-371 166-367 370-367c88 0 171 33 234 83l158-158c8-8 17-8 25-8s17 4 25 8c13 12 13 37 0 50z m-737 392c0 162 133 296 295 296s300-134 300-296c0-84-33-154-87-209 0 0 0 0 0 0 0 0 0 0 0 0-54-54-129-87-208-87-167-4-300 133-300 296z" horiz-adv-x="1000" />

<glyph glyph-name="shopping-cart" unicode="&#xe845;" d="M375-100c-42 0-79 33-79 75s37 75 79 75 79-33 79-75-37-75-79-75z m0 83c-4 0-4-4-4-8 0-8 12-8 12 0-4 4-4 8-8 8z m458-83c-41 0-75 33-75 75s34 75 75 75 75-33 75-75-33-75-75-75z m0 83c-4 0-8-4-8-8 0-8 13-8 13 0 4 4 0 8-5 8z m-433 163c-54 0-104 42-117 96l-66 350c0 0 0 4 0 4l-38 175h-137c-21 0-38 17-38 37s17 34 38 34h166c17 0 34-13 34-29l37-180h679c13 0 21-4 30-12 8-8 8-21 8-29l-67-350c-12-59-62-96-121-96l-408 0c4 0 0 0 0 0z m-108 417l62-309c4-21 25-37 50-37h404c25 0 46 16 50 37l59 309h-625z" horiz-adv-x="1000" />

<glyph glyph-name="profile-circled" unicode="&#xe846;" d="M850 71c63 75 100 175 100 279 0 246-200 450-450 450s-450-204-450-450 204-450 450-450c142 0 267 67 350 171 0 0 0 0 0 0z m-350 662c213 0 383-170 383-383 0-79-25-154-66-217-46 38-146 105-317 105-171 0-275-63-317-105-41 63-66 138-66 217 0 213 171 383 383 383z m0-771c-108 0-208 46-279 121 33 30 121 88 279 88 158 0 246-58 279-88-71-70-171-121-279-121z m0 355c88 0 158 71 158 158s-70 154-158 154c-87 0-158-66-158-154s71-158 158-158z m0 250c50 0 92-42 92-92s-42-92-92-92c-50 0-92 42-92 92s42 92 92 92z" horiz-adv-x="1000" />

<glyph glyph-name="pin-alt" unicode="&#xe847;" d="M500-108l-21 20c-12 13-341 330-341 521 0 200 162 367 366 367 200 0 367-162 367-367 0-195-329-508-342-521l-29-20z m0 841c-167 0-300-133-300-300 0-129 200-358 300-458 100 100 300 325 300 458 0 167-133 300-300 300z m0-225c42 0 75-33 75-75s-33-75-75-75-75 34-75 75 33 75 75 75z" horiz-adv-x="1000" />

<glyph glyph-name="repeat" unicode="&#xe848;" d="M904 629c4 9 4 17 0 25 0 4-4 9-8 9 0 0 0 0 0 0l-167 166c-12 13-33 13-46 0-12-12-12-33 0-46l109-108h-500c-109 0-200-92-200-200v-83c0-17 16-34 33-34s33 17 33 34v83c0 75 59 133 134 133h504l-108-108c-13-12-13-33 0-46 8-8 16-8 25-8s16 4 25 8l166 167c0 0 0 0 0 0-4 0 0 4 0 8z m-29-287c-17 0-33-17-33-34v-83c0-75-59-133-134-133h-504l109 108c12 13 12 33 0 46-13 12-34 12-46 0l-167-167c0 0 0 0 0 0-4-4-4-4-8-8-4-8-4-17 0-25 0-4 4-8 8-8 0 0 0 0 0 0l167-167c8-9 16-9 25-9s16 5 25 9c12 12 12 33 0 46l-109 108h500c109 0 200 92 200 200v83c0 17-16 34-33 34z" horiz-adv-x="1000" />

<glyph glyph-name="share" unicode="&#xe849;" d="M750-100h-500c-62 0-117 54-117 117v333c0 17 17 33 34 33s33-16 33-33v-333c0-30 21-50 50-50h500c29 0 50 20 50 50v333c0 17 17 33 33 33s34-16 34-33v-333c0-63-54-117-117-117z m-58 725l-167 167c0 0 0 0 0 0-4 4-4 4-8 4-4 0-9 4-13 4 0 0 0 0 0 0 0 0 0 0 0 0-4 0-8 0-12-4-4 0-9-4-9-4 0 0 0 0 0 0l-166-167c-13-12-13-33 0-46 12-12 33-12 46 0l108 109v-463c0-17 17-33 33-33s34 16 34 33v463l108-109c8-8 17-8 25-8s17 4 25 8c8 9 8 34-4 46z" horiz-adv-x="1000" />

<glyph glyph-name="coin" unicode="&#xe84a;" d="M500-100c-246 0-450 204-450 450s204 446 450 446 450-200 450-446-204-450-450-450z m0 833c-212 0-383-170-383-383s171-383 383-383 383 171 383 383-170 383-383 383z m0-687c-17 0-33 12-33 33v59c-50 8-92 33-121 66-8 13-8 34 4 42 13 8 33 8 46-4 21-25 58-46 100-46 4 0 4 0 4 0 29 0 54 8 71 21 12 12 17 25 17 46 0 33-30 45-92 62-58 17-138 38-138 125 0 38 13 67 34 88 16 16 41 29 71 33v50c0 17 12 33 33 33s33-12 33-33v-46c46-8 88-29 117-54 12-13 12-33 0-46-13-12-33-12-46 0-21 21-67 38-104 42 0 0-4 0-4 0-25 0-42-4-54-17-9-8-17-25-17-42 0-33 29-45 92-62 58-17 137-38 137-125 0-38-12-67-37-92-21-21-55-33-88-37v-59c8-20-8-37-25-37z" horiz-adv-x="1000" />

<glyph glyph-name="coupon-1" unicode="&#xe84b;" d="M938 670v-382c0-44-35-79-79-79h-461c-8 0-15 7-15 16s7 16 15 16h461c26 0 47 21 47 47v382c0 26-21 47-47 47h-781c-26 0-47-21-47-47v-382c0-26 21-47 47-47h98c8 0 15-7 15-16s-7-16-15-16h-98c-43 0-78 35-78 79 0 0 0 319 0 382 0 43 35 78 78 78h781c44 0 79-35 79-78z m-653-158v135c0 9-7 16-15 16s-16-7-16-16v-135c0-8 7-15 16-15s15 7 15 15z m420 44l-153-153c-6-7-6-16 0-23 6-6 16-6 22 0l153 153c6 7 6 16 0 23-6 6-16 6-22 0z m16-128c17 0 31-14 31-31s-14-31-31-31-31 14-31 31 14 31 31 31z m0-31c0-1 0-1 0 0 0 0 0 0 0 0z m-122 153c0-17-14-31-31-31s-31 14-31 31 14 31 31 31 31-14 31-31z m-31 0c0 0 0-1 0-1 1 0 1 1 0 1z m-304-475c-9-35-41-61-79-61-46 0-83 37-83 83s37 83 83 83c31 0 58-17 72-43l5 11-19 49c-16 39-16 83 0 123l97 253c4 11 18 14 26 6 47-48 61-119 35-181z m15 114l93 221c18 42 13 90-12 127l-88-228c-21-55-2-97 7-120z m-43-92c0 29-23 52-51 52s-52-23-52-52 23-52 52-52 51 24 51 52z m239 0c0-46-38-83-83-83s-83 37-83 83 37 83 83 83 83-37 83-83z m-32 0c0 29-23 52-51 52s-52-23-52-52 23-52 52-52 51 24 51 52z" horiz-adv-x="1000" />

<glyph glyph-name="checkup" unicode="&#xe84c;" d="M278 536l-56-55c-6-6-16-6-22 0l-26 26c-7 6-7 16 0 22 6 6 16 6 22 0l15-15 45 44c6 6 16 6 22 0 6-6 6-16 0-22z m0-179c-6 6-16 6-22 0l-45-44-15 15c-6 6-16 6-22 0-7-6-7-16 0-22l26-27c6-6 16-6 22 0l56 56c6 6 6 16 0 22z m375-429c0-9-7-16-15-16h-512c-43 0-78 35-78 79v703c0 43 35 78 78 78h188v10c0 37 30 68 68 68s68-31 68-68v-10h188c43 0 78-35 78-78v-168c0-8-7-15-16-15s-15 7-15 15v168c0 26-21 47-47 47-24 0-491 0-512 0-26 0-47-21-47-47v-703c0-26 21-47 47-47h512c8 0 15-7 15-16z m-308 844h74v10c0 20-17 37-37 37s-37-17-37-37z m217-74c0 8-7 15-16 15s-16-7-16-15c0-18-14-32-31-32h-234c-18 0-32 14-32 32 0 8-7 15-15 15s-16-7-16-15c0-35 28-63 63-63h234c35 0 63 28 63 63z m-280-565v-35c0-26-21-47-47-47h-35c-26 0-47 21-47 47v35c0 26 21 47 47 47h35c26 0 47-21 47-47z m-31 0c0 9-7 16-16 16h-35c-8 0-15-7-15-16v-35c0-9 7-16 15-16h35c9 0 16 7 16 16z m293-10h-53c-8 0-15-7-15-15s7-16 15-16h53c9 0 16 7 16 16s-7 15-16 15z m346 299v-371c0-34-28-62-63-62h-371c-34 0-62 28-62 62v371c0 35 28 63 62 63h371c35 0 63-28 63-63z m-32 0c0 18-14 32-31 32h-240v-95c0-9 7-16 16-16h80c8 0 15 7 15 16v50c0 8 7 15 16 15s16-7 16-15v-50c0-26-21-47-47-47h-80c-26 0-47 21-47 47v95h-100c-17 0-31-14-31-32v-371c0-17 14-31 31-31h371c17 0 31 14 31 31z" horiz-adv-x="1000" />

<glyph glyph-name="coupon" unicode="&#xe84d;" d="M653 464c6-6 6-16 0-22l-153-153c-3-3-7-5-11-5-14 0-21 17-11 27l153 153c6 6 16 6 22 0z m-6-128c17 0 31-14 31-31s-14-31-31-31-31 14-31 31 14 31 31 31z m0-31c0-1 0-1 0 0 0 0 0 0 0 0z m-122 153c0-17-14-31-31-31s-31 14-31 31 14 31 31 31 31-14 31-31z m-31 0c-1 0-1-1 0-1 0 0 0 1 0 1z m381 232h-497c-9 0-16-7-16-16s7-15 16-15h497c17 0 31-14 31-32v-492c0-17-14-31-31-31h-590v33c0 9-7 16-15 16s-16-7-16-16v-33h-191c-18 0-32 14-32 31v86c0 12 6 22 16 28 106 56 106 208 0 265-10 5-16 16-16 27v86c0 18 14 32 32 32h191v-33c0-9 7-16 16-16s15 7 15 16v48c0 9-7 16-15 16h-207c-35 0-63-28-63-63v-86c0-23 13-44 33-55 84-44 84-165 0-210-20-11-33-32-33-55v-86c0-34 28-62 63-62h812c35 0 63 28 63 62v492c0 35-28 63-63 63z m-590-182c0 8-7 15-15 15s-16-7-16-15v-62c0-8 7-15 16-15s15 7 15 15z m-15-176c-9 0-16-7-16-16v-61c0-9 7-16 16-16s15 7 15 16v61c0 9-7 16-15 16z" horiz-adv-x="1000" />

<glyph glyph-name="-support" unicode="&#xe84e;" d="M768 160c36-36 36-96 0-132l-23-23c-6-6-16-6-22 0s-6 16 0 22l23 23c24 24 24 64 0 88l-87 87c-25 24-64 24-89 0l-36-36c-30-30-77-30-107 0l-161 161c-29 29-29 77 0 107l36 36c25 24 25 64 0 88l-87 87c-24 25-64 25-88 0l-32-31c-85-86-85-224 0-310l310-309c61-62 153-81 234-49 8 3 17-1 20-9 3-8-1-17-9-20-92-37-197-14-267 56l-310 309c-97 98-97 256 0 354l32 31c37 37 96 37 133 0l87-87c36-36 36-96 0-132l-37-36c-17-18-17-46 0-63l161-161c18-17 46-17 63 0l36 36c37 37 96 37 133 0z m91 681h-391c-43 0-78-35-78-79v-156c0-43 35-78 78-78h16v-51c0-8 7-15 15-15 6 0-1-4 120 68 7 5 9 14 5 22s-14 10-21 5l-88-52v39c0 8-7 15-16 15h-31c-26 0-47 21-47 47v156c0 26 21 47 47 47h391c26 0 47-21 47-47v-156c0-26-21-47-47-47h-163c-9 0-16-7-16-15s7-16 16-16h163c43 0 78 35 78 78v156c0 44-35 79-78 79z m-346-172c24 0 43 19 43 43s-19 43-43 43h-27c-9 0-16-7-16-16s7-16 16-16h27c7 0 12-5 12-11s-5-12-12-12c-24 0-43-19-43-43v-27c0-9 7-16 16-16h55c8 0 15 7 15 16s-7 15-15 15h-40v12c0 6 6 12 12 12z m137-55c9 0 16 7 16 16 0 13 0 96 0 109 0 9-7 16-16 16s-16-7-16-16v-39h-23v39c0 9-7 16-16 16s-15-7-15-16v-55c0-8 7-15 15-15h39v-39c0-9 7-16 16-16z m153 0c7 0 13 4 15 11l38 109c3 10-4 21-15 21h-54c-9 0-16-7-16-16s7-16 16-16h32l-31-88c-3-10 5-21 15-21z m-84 12l28 109c2 9-3 17-12 19-8 2-17-3-19-11l-27-110c-2-8 3-16 11-18 9-3 17 3 19 11z" horiz-adv-x="1000" />

<glyph glyph-name="box" unicode="&#xe84f;" d="M823 278c6-6 6-16 0-22l-82-82c-6-6-16-6-22 0l-38 38c-7 6-7 16 0 22 6 6 15 6 22 0l27-27 71 71c6 7 16 7 22 0z m-573-69h-92c-8 0-15-7-15-16s7-16 15-16h92c8 0 15 7 15 16s-7 16-15 16z m0-90h-92c-8 0-15-7-15-15s7-16 15-16h92c8 0 15 7 15 16s-7 15-15 15z m477-125h-649c-26 0-47 22-47 47v680c0 26 21 47 47 47h203v-176c0-36 38-58 69-42l62 33c4 3 10 3 14 0l62-33c32-16 69 6 69 42v117c0 9-7 16-15 16s-16-7-16-16v-117c0-12-12-20-23-14l-62 33c-14 7-30 7-44 0l-62-33c-10-6-23 2-23 14v176h446c26 0 47-21 47-47v-240c0-9 7-16 15-16s16 7 16 16v240c0 43-35 78-78 78h-680c-43 0-78-35-78-78v-680c0-43 35-78 78-78h649c8 0 15 7 15 16s-7 15-15 15z m190 231l19 49c3 7 1 15-5 19l-45 30-13 51c-2 7-9 12-16 12l-53-2-42 33c-5 5-14 5-19 1l-42-34-53 3c-8 1-14-4-16-11l-15-51-44-29c-7-4-9-12-7-19l19-50-19-49c-3-7-1-15 5-19l45-30 13-51c2-7 9-12 16-12l53 2 42-33c5-5 14-5 19 0l42 33 53-3c9-1 16 6 17 14 0 9-6 16-15 17l-59 3c-4 0-8-1-11-3l-36-29-36 29c-3 3-7 4-11 4l-47-2-11 45c-1 4-4 7-7 9l-39 26 17 43c2 4 2 8 0 12l-16 43 39 26c4 2 6 5 7 9l12 45 47-3c4 0 8 1 11 3l36 29 36-29c3-3 7-4 11-4l47 2 11-45c1-4 4-7 7-9l39-26-17-43c-2-4-2-8 0-12l16-44-20-13c-7-5-9-15-4-22 5-7 14-9 21-4l31 20c6 4 8 12 6 19z" horiz-adv-x="1000" />

<glyph glyph-name="wallet" unicode="&#xe850;" d="M885 387v187c0 43-35 78-78 78h-27l6 20c10 33-9 68-43 78l-177 51c-8 2-17-3-19-11-3-8 2-17 10-19l112-33c-14-26-14-58-1-86h-326v123c0 8-7 15-16 15s-15-7-15-15v-123h-53v123c0 8-7 15-16 15s-15-7-15-15v-123h-69v135c0 17 14 31 32 31h263c17 0 31-14 31-31v-86c0-9 7-16 16-16s16 7 16 16v86c0 34-28 62-63 62h-263c-35 0-63-28-63-62v-135h-49c-43 0-78-35-78-78v-582c0-44 35-79 78-79h729c43 0 78 35 78 79v114c0 9-7 16-16 16s-15-7-15-16v-114c0-26-21-47-47-47h-729c-26 0-47 21-47 47v582c0 26 21 47 47 47h729c26 0 47-21 47-47v-186h-129c-35 0-63-28-63-62v-86c0-35 28-63 63-63h150c34 0 63 28 63 63v86c0 31-23 57-53 61z m-185 343l35-10c16-5 26-23 21-39l-8-29h-42c-20 22-22 54-6 78z m206-490c0-18-14-32-31-32h-150c-18 0-32 14-32 32v86c0 17 14 31 32 31h150c17 0 31-14 31-31z m-123 43c0-9-7-16-15-16h-24c-8 0-15 7-15 16s7 15 15 15h24c8 0 15-7 15-15z" horiz-adv-x="1000" />

<glyph glyph-name="armchair" unicode="&#xe851;" d="M243 403h-12c-11 0-20-8-20-19 0-11 9-20 20-20h12v-12c0-10 8-19 19-19 11 0 20 9 20 19v12h12c10 0 19 9 19 20 0 11-9 19-19 19h-12v12c0 11-9 20-20 20-11 0-19-9-19-20z m0 0m238 32c-10 0-19-9-19-20v-12h-12c-11 0-19-8-19-19 0-11 8-20 19-20h12v-12c0-10 9-19 19-19s20 9 20 19v12h12c11 0 19 9 19 20 0 11-8 19-19 19h-12v12c0 11-9 20-20 20z m0 0m521 177l-20 219c-1 10-9 18-19 18h-219c-10 0-19-8-20-18l-19-219c-1-5 1-11 5-15 3-4 9-6 14-6h39v-134c0-11 9-20 20-20s19 9 19 20v134h32v-705h-39c-11 0-20-9-20-19s9-20 20-20h117c11 0 20 9 20 20s-9 19-20 19h-39v705h109c6 0 11 2 15 6 4 4 5 10 5 15z m-57 198l6-71h-196l7 71z m-199-180l6 70h203l6-70z m0 0m-461-78h0c11 0 20 8 20 19s-9 20-20 20h0c-11 0-20-9-20-20s9-19 20-19z m0 0m368-208c-2 0-3 0-4 0v113c0 74-60 134-134 134h-151c-11 0-20-9-20-20s9-19 20-19h151c52 0 95-43 95-95v-123c-29-15-49-46-49-81v-28c-61 17-125 25-189 25s-128-8-190-25v28c1 24-9 47-26 64-6 7-14 12-22 17v123c0 52 42 95 95 95 10 0 19 8 19 19s-9 20-19 20c-74 0-134-60-134-134v-113c-2 0-3 0-4 0-50 0-91-40-91-91 0-31 16-60 42-77l2-1c16-10 23-14 25-19 3-6 3-20 3-44l0-138c0-20 11-37 28-45v-41c0-37 28-41 40-41 10 0 22 0 31 8 9 7 12 18 15 29l11 41h350l11-41c2-11 5-22 15-29 9-8 20-8 31-8 12 0 39 4 39 41v41c17 8 29 25 29 45l0 138c0 24 0 38 3 44 2 5 9 9 25 19l1 1c27 17 43 46 43 77 0 51-41 91-91 91z m-505-450c0-1-1-5-2-8-2 0-5 0-7 0 0 1 0 1 0 2v37h18z m456-8c-1 0-4 0-6 0-1 3-2 7-3 8l-8 31h17v-37c0-1 0-1 0-2z m76 323l-1-1c-20-12-33-20-40-36-6-13-6-29-6-60v-139c0-4-4-9-9-9h-504c-5 0-9 5-9 9l0 139c0 31 0 47-7 60-7 16-19 24-39 36l-2 1c-15 10-24 26-24 44 0 29 24 52 52 52 14 0 28-5 37-15 10-10 15-23 15-37v0-129c0-26 22-48 48-48h226c11 0 20 9 20 20 0 11-9 19-20 19h-226c-4 0-9 5-9 9v61c62 17 126 26 190 26s128-9 189-26v-61c0-4-4-9-9-9-11 0-19-8-19-19 0-11 8-20 19-20 27 0 48 22 48 48v129c0 29 24 52 53 52 28 0 52-23 52-52 0-18-9-34-25-44z m0 0m-206-94h0c-11 0-20-8-20-19 0-11 9-20 20-20h0c11 0 20 9 20 20 0 11-9 19-20 19z m0 0" horiz-adv-x="1000" />

<glyph glyph-name="desktop" unicode="&#xe852;" d="M969 444h-47v203a16 16 0 0 1-16 16h-187a16 16 0 0 1-16-16v-203h-284l-8 31h112a55 55 0 0 1 55 55v203a55 55 0 0 1-55 55h-390a55 55 0 0 1-55-55v-203a55 55 0 0 1 55-55h113l-8-31h-207a16 16 0 0 1-15-16v-500a16 16 0 0 1 15-16h47a16 16 0 0 1 16 16v297h484v-297a16 16 0 0 1 16-16h47a16 16 0 0 1 15 16v47h250v-47a16 16 0 0 1 16-16h47a16 16 0 0 1 15 16v500a16 16 0 0 1-15 16z m-141 187h63v-187h-63z m-94 0h63v-187h-63z m-625 102a24 24 0 0 0 24 23h390a24 24 0 0 0 24-23v-180h-438z m24-227a24 24 0 0 0-22 16h435a24 24 0 0 0-23-16z m253-62h-116l8 31h100z m-323-500h-16v406h16z m515 312h-484v94h484z m47-312h-16v406h16z m281 62h-250v94h250z m0 125h-250v94h250z m0 125h-250v94h250z m47-312h-15v406h15z m0 437h-906v32h906z m-219-93h94a16 16 0 0 1 0 31h-94a16 16 0 0 1 0-31z m94-94h-94a16 16 0 0 1 0-31h94a16 16 0 0 1 0 31z m0-125h-94a16 16 0 0 1 0-31h94a16 16 0 0 1 0 31z m-453 250h-94a16 16 0 0 1 0-31h94a16 16 0 0 1 0 31z" horiz-adv-x="1000" />

<glyph glyph-name="desk" unicode="&#xe853;" d="M969 428h-156v47c0 9-7 16-16 16-24 0-45-11-59-28-4 2-8 4-13 6l-32 10c-12 5-21 17-21 30v13h172c17 0 31 14 31 31v250c0 17-14 31-31 31h-438c-17 0-31-14-31-31v-250c0-17 14-31 31-31h172v-13c0-14-8-26-21-30l-32-11c-19-6-33-21-38-40h-190v266c0 8-7 15-16 15h-187c-9 0-16-7-16-15v-266h-47c-8 0-15-7-15-15v-94-438c0-8 7-15 15-15h63c8 0 15 7 15 15v110h157v-110c0-8 7-15 15-15h63c8 0 15 7 15 15v422h360v-109h-203c-43 0-78-35-78-78v-32c0-8 7-15 15-15h125v-12c0-37-13-71-38-98h-24c-26 0-47-21-47-47s21-46 47-46h218c26 0 47 21 47 46s-21 47-47 47h-24c-24 27-38 61-38 98v12h94c25 0 47 21 47 47v62 125h78v-422c0-8 7-15 15-15h63c8 0 15 7 15 15v438 94c0 8-7 15-15 15z m-563 375h438v-187h-438v187z m0-250v31h438v-31h-438z m129-114l32 11c25 8 42 32 42 59v13h32v-13c0-27 17-51 42-60l32-10c3-1 5-2 8-4-1-2-2-4-3-7h-199c3 5 8 9 14 11z m-426 239h157v-62h-157v62z m0-94h157v-62h-157v62z m0-93h157v-63h-157v63z m-31-594h-31v406h31v-406z m188 125h-157v125h157v-125z m0 156h-157v125h157v-125z m62-281h-31v406h31v-406z m16 437h-63-187-47v63h672v-63h-375z m390-406c9 0 16-7 16-16 0-8-7-15-16-15h-218c-9 0-16 7-16 15 0 9 7 16 16 16h218z m-90 96c0-4 1-8 2-12 3-10 7-21 11-30 2-4 4-8 6-12s4-7 7-10h-90c19 28 29 62 29 97v12h31v-12c1-11 2-22 4-33z m137 92c0-9-7-16-15-16h-297v16c0 25 21 47 47 47h265v-47z m0 78h-31v219c0 20 13 37 31 44v-263z m172-297h-31v406h31v-406z m0 437h-47-93v63h140v-63z m-373-375c19 29 29 63 29 98 0-35-10-69-29-98z m64 65c0-4 1-8 2-12-1 4-2 8-2 12z m19-54c2-3 5-7 7-11-2 4-5 8-7 11z m-6 12c2-4 4-8 6-12-2 4-4 8-6 12z" horiz-adv-x="1000" />

<glyph glyph-name="ceiling-lamp" unicode="&#xe854;" d="M882 292h-40v46c0 75-30 146-83 199-42 42-95 69-153 78v81c0 11-9 19-19 20l-67 0v115c0 10-9 19-20 19s-19-9-19-19v-115l-67 0h0c-5 0-10-2-14-5-3-4-5-9-5-14v-82c-58-9-112-36-154-78-53-53-82-124-82-199v-46h-41c-11 0-19-8-19-19v-96c0-10 8-19 19-19h196c-2-9-2-17-2-26 0-104 84-188 188-188 106 0 188 83 188 188 0 9 0 17-1 26h195c11 0 19 9 19 19v96c0 11-8 19-19 19z m-448 385l133 0v-58c-2 0-5 0-7 0h-120c-2 0-4 0-6 0v58z m-236-339c0 133 108 242 242 242h120c134 0 243-109 243-242v-46h-605z m302-355c-82 0-149 67-149 149 0 9 1 17 2 26h294c1-9 2-17 2-26 0-83-65-149-149-149z m362 214h-724v56h724v-56z m-362-278c-11 0-19-9-19-20v-30c0-10 8-19 19-19s20 9 20 19v30c0 11-9 20-20 20z m188 49c-7 7-20 7-27 0s-8-20 0-28l21-21c4-4 9-6 14-6 5 0 10 2 13 6 8 8 8 20 0 28z m-376 0l-21-21c-8-8-8-20 0-28 4-4 9-6 14-6 5 0 10 2 13 6l21 21c8 8 8 20 0 28-7 7-20 7-27 0z" horiz-adv-x="1000" />

<glyph glyph-name="bedroom" unicode="&#xe855;" d="M867 83c9 0 16 8 16 17v117h34c9 0 16 7 16 16s-7 17-16 17h-100v267c0 9-8 16-17 16h-600c-9 0-17-7-17-16s8-17 17-17h583v-167c-14 11-32 17-50 17h-16v17c0 27-23 50-50 50h-100c-28 0-50-23-50-50v-17h-34v17c0 27-22 50-50 50h-100c-27 0-50-23-50-50v-17h-16c-46 0-84-37-84-83v-17h-100c-9 0-16-7-16-17s7-16 16-16h34v-117c0-9 7-17 16-17h50v-50c0-9 8-16 17-16h67c9 0 16 7 16 16v50h267c9 0 17 8 17 17s-8 17-17 17h-400v100h700v-100h-233c-9 0-17-8-17-17s8-17 17-17h100v-50c0-9 7-16 16-16h67c9 0 17 7 17 16v50z m-617 0v-33h-33v33z m300 284c0 9 8 16 17 16h100c9 0 16-7 16-16v-17h-133z m-233 0c0 9 7 16 16 16h100c10 0 17-7 17-16v-17h-133z m-100-100c0 27 22 50 50 50h466c28 0 50-23 50-50v-17h-566z m566-217h-33v33h33z m0 0m-283 567c64 0 117 52 117 116s-53 117-117 117-117-52-117-117 53-116 117-116z m0 200c46 0 83-38 83-84s-37-83-83-83-83 37-83 83 37 84 83 84z m0 0m0-100h33c10 0 17 7 17 16s-7 17-17 17h-16v17c0 9-8 16-17 16s-17-7-17-16v-34c0-9 8-16 17-16z m0 0m483-400h-13l13 80c1 5 0 10-3 14-4 4-8 6-13 6h-100c-5 0-10-2-13-6-3-4-5-9-4-14l14-80c-8-2-14-9-14-17 0-9 8-17 17-17h100v-100h-34c-9 0-16-7-16-16s7-17 16-17h34v-100h-100c-9 0-17-7-17-17s8-16 17-16h116c10 0 17 7 17 16v267c0 9-7 17-17 17z m-85 0l-12 66h61l-11-66z m0 0m-765-267h-100v100h34c9 0 16 8 16 17s-7 16-16 16h-34v100h100c10 0 17 8 17 17s-7 17-17 17h-16v66h66c6 0 11 3 14 8 3 5 4 10 2 16l-50 116c-3 6-9 10-16 10h-66c-7 0-13-4-16-10l-50-116c-2-6-1-11 2-16 3-5 8-8 14-8h66v-66h-66c-9 0-17-8-17-17v-267c0-9 8-16 17-16h116c10 0 17 7 17 16s-7 17-17 17z m-55 450h44l36-83h-117z m0 0" horiz-adv-x="1000" />

<glyph glyph-name="living-room" unicode="&#xe856;" d="M950 267h-50v166c0 46-37 84-83 84h-267c-46 0-83-38-83-84v-166h-50c-28 0-50-23-50-50v-167c0-44 34-80 78-83l-24-84h-156c-8 39-42 67-82 67h-33v767c0 52 40 96 92 99s98-33 106-85l0-2c-21-8-34-31-30-54l5-27-45-76c-6-11-6-23 0-34 6-10 17-16 29-17 2 0 3 1 5 1l160 27c13 2 23 11 27 24 3 12-1 26-11 34l-67 58-4 27c-4 18-17 34-35 39l-1 5c-10 69-72 119-141 114s-123-63-123-133v-767h-34v17c0 9-7 16-16 16-9 0-17-7-17-16v-24c-30-13-50-43-50-76 0-10 8-17 17-17h966c10 0 17 7 17 17 0 9-7 16-17 16h-37l-24 84c44 3 78 39 78 83v167c0 27-22 50-50 50z m-483 315l-160-27 43 75 51 8 66-56z m-80 88l-33-6-3 17c-2 9 4 17 14 19 0 0 1 0 2 0 8 0 15-6 17-14z m163-187h267c27 0 50-22 50-50v-169c-20-7-34-26-34-47v-34c-14 11-32 17-50 17h-59l38 38c6 7 6 17 0 24-7 6-17 6-24 0l-38-38v76c0 9-7 17-17 17s-16-8-16-17v-76l-38 38c-7 6-17 6-24 0-6-7-6-17 0-24l38-38h-60c-18 0-35-6-50-17v34c0 21-13 40-33 47v169c0 28 22 50 50 50z m233-316c28 0 50-23 50-50v-17h-300v17c0 27 23 50 50 50z m24-200l48-84h-343l48 84z m26 33h-300v67h300z m-433 50v167c0 9 8 16 17 16h66c10 0 17-7 17-16v-217h-50c-28 0-50 22-50 50z m-364-167c7 20 26 34 47 34h100c22 0 40-14 48-34z m419 0l24 84h42l-47-84z m438 0l-48 84h42l24-84z m74 167c0-28-23-50-50-50h-50v217c0 9 7 16 16 16h67c9 0 17-7 17-16z m0 0" horiz-adv-x="1000" />

<glyph glyph-name="living-room-1" unicode="&#xe857;" d="M265 150c-3 3-9 6-14 6-5 0-10-3-13-6-4-4-6-9-6-14s2-10 6-14c3-3 8-5 13-5 5 0 11 2 14 5 4 4 6 9 6 14s-2 10-6 14z m177 0c-3 3-8 6-14 6-5 0-10-3-13-6s-6-9-6-14 2-10 6-14c3-3 8-5 13-5 6 0 11 2 14 5 4 4 6 9 6 14s-2 10-6 14z m479 0c-3 3-8 6-14 6-5 0-10-3-13-6s-6-9-6-14 2-10 6-14c3-3 8-5 13-5 6 0 11 2 14 5 4 4 6 9 6 14s-2 10-6 14z m-69 512c-4 4-9 6-14 6-5 0-10-2-14-6-3-4-5-9-5-14 0-5 2-10 5-14 4-3 9-5 14-5 5 0 10 2 14 5 4 4 6 9 6 14 0 5-2 10-6 14z m-146 53c-8 8-20 8-28 0l-147-148c-8-7-8-20 0-27 3-4 8-6 13-6s10 2 14 6l148 147c7 8 7 20 0 28z m-412-88h-24c0 1 0 1 0 1v182c0 22-18 40-40 40h-53c-22 0-40-18-40-40v-19c-1 0-1 0-1 0h-53c-22 0-40-18-40-40v-123c0 0 0 0 0-1h-23c-11 0-20-8-20-19s9-20 20-20h63 53 41 53 64c11 0 20 9 20 20s-9 19-20 19z m-157 1c0 0-1-1-1-1h-53c0 0-1 1-1 1v123c0 0 1 1 1 1h53c0 0 1-1 1-1v-123z m94 0c0 0-1-1-1-1h-53c-1 0-1 1-1 1v123 59c0 1 0 1 1 1h53c0 0 1 0 1-1v-182z m718-223c28 0 51 23 51 51v265c0 28-23 51-51 51h-500c-28 0-51-23-51-51v-265c0-28 23-51 51-51h186v-35c0-29-24-53-54-53h-346c12 16 20 37 20 59v47c0 11-9 19-20 19h-44c0 3 0 5-1 8 14 2 31 7 43 20 24 24 22 63 21 68 0 5-2 9-5 13-4 3-8 5-13 5-8 1-46 4-69-20-7-7-12-15-15-23-27 16-59 14-66 14-4-1-9-2-12-6-4-3-6-8-6-12-1-8-3-40 12-67h-1c-11 0-20-8-20-19v-47c0-22 8-43 20-59h-59c-11 0-20-9-20-20v-312c0-11 9-20 20-20h139l-25-90c-1-6 0-13 4-17 3-5 9-8 15-8h86c7 0 14 4 18 11l50 104h386l51-104c3-7 10-11 17-11h86c6 0 12 3 16 8 3 4 4 11 3 17l-25 90h140c10 0 19 9 19 20v312c0 11-9 20-19 20h-164c-29 0-53 24-53 53v35h185z m-754 103c4 5 12 8 19 9-1-7-4-14-9-19-4-5-12-8-19-9 1 7 4 15 9 19z m-56-34c8-7 11-20 13-31-11 1-24 4-33 12-8 8-11 21-12 32 11-1 24-5 32-13z m-41-71h59c1 0 3 0 4 0 1 0 2 0 4 0h51v-27c0-32-27-59-59-59s-59 27-59 59v27z m129-514h-48l20 76h64l-36-76z m93 115h-281v274h281v-274z m321 0h-282v274h282v-274z m19 313c-1 0-2 0-3 0 11 15 17 33 17 53v35h51v-35c0-20 6-38 17-53h-77c-2 0-3 0-5 0z m113-428l-36 76h64l20-76h-48z m188 389v-274h-281v113h153c11 0 19 8 19 19s-8 20-19 20h-153v122h281z m-300 166l137 136c7 8 7 20 0 28-8 7-20 7-28 0l-163-163c0 0 0-1-1-1h-157c-6 0-11 5-11 12v265c0 7 5 12 11 12h500c7 0 12-5 12-12v-265c0-7-5-12-12-12h-288z" horiz-adv-x="1000" />

<glyph glyph-name="kitchen2" unicode="&#xe858;" d="M766 303a16 16 0 0 1 15 16v31a16 16 0 0 1-31 0v-31a16 16 0 0 1 16-16z m0-94a16 16 0 0 1-16-15v-31a16 16 0 0 1 31 0v31a16 16 0 0 1-15 15z m-52-276a47 47 0 0 1 20-5h188a47 47 0 0 1 47 47v406a47 47 0 0 1-47 47h-188a47 47 0 0 1-46-47v-78h-32v31a16 16 0 0 1-15 16h-94a16 16 0 0 1-16-16v-31h-31v31a16 16 0 0 1-5 11 47 47 0 0 1 5 21h31a16 16 0 0 1 0 31h-31a16 16 0 0 1-16 16h-93a16 16 0 0 1-16-16v-31a47 47 0 0 1 5-21 16 16 0 0 1-5-11v-31h-78v31h16a16 16 0 0 1 0 32h-16v15a47 47 0 0 1-94 0v-31a16 16 0 0 1 31 0v31a16 16 0 0 0 32 0v-78h-125v31a47 47 0 0 1-94 0v-31a16 16 0 0 1-16-15v-344a16 16 0 0 1 16-16h656a16 16 0 0 1 11 5z m208 26h-188a16 16 0 0 0-15 16v266h219v-266a16 16 0 0 0-16-16z m-203 422a16 16 0 0 0 15 16h188a16 16 0 0 0 16-16v-109h-219z m-94-109v-63h-219v63z m-219-94h219v-156h-219z m157 141h62v-16h-62z m-157-16v16h63v-16z m0 78h63v-15a16 16 0 0 0-16-16h-31a16 16 0 0 0-16 16z m-328-47a16 16 0 0 0 31 0v-31h-31z m610-375h-625v313h312v-266a16 16 0 0 1 16-15h250a16 16 0 0 1 15 15v266h32z m-141 188h-63a16 16 0 0 1 0-31h63a16 16 0 0 1 0 31z m-219-31h-219a16 16 0 0 1-15-16v-94a16 16 0 0 1 15-15h219a16 16 0 0 1 16 15v94a16 16 0 0 1-16 16z m-15-94h-188v62h188z m15 219h-219a16 16 0 0 1-15-16v-62a16 16 0 0 1 15-16h219a16 16 0 0 1 16 16v62a16 16 0 0 1-16 16z m-15-63h-188v31h188z m312 469a16 16 0 0 1 16 16v31a16 16 0 0 1-32 0v-31a16 16 0 0 1 16-16z m188 0a16 16 0 0 1 15 16v31a16 16 0 0 1-31 0v-31a16 16 0 0 1 16-16z m-766 31h141v-62h-16a16 16 0 0 1-14-9l-47-94a16 16 0 0 1 14-22h156a16 16 0 0 1 14 22l-47 94a16 16 0 0 1-14 9h-15v62h203v-62h-16a16 16 0 0 1-14-9l-47-94a16 16 0 0 1 14-22h157a16 16 0 0 1 14 22l-47 94a16 16 0 0 1-14 9h-16v62h110v-125a16 16 0 0 1 15-15h375a16 16 0 0 1 16 15v203a16 16 0 0 1-16 16h-906a16 16 0 0 1-16-16v-62a16 16 0 0 1 16-16z m209-156h-106l32 62h43z m234 0h-105l31 62h43z m104 219h140v-125h-140v125z m344-172h-344v15h344z m0 47h-172v125h172z m-875 125h500v-32h-500z" horiz-adv-x="1000" />

<glyph glyph-name="decorative" unicode="&#xe859;" d="M363 701c-30 0-55-25-55-56 0-30 25-55 55-55 31 0 56 25 56 55 0 31-25 56-56 56z m0-84c-15 0-28 13-28 28s13 28 28 28 28-12 28-28-12-28-28-28z m123-437l0 0c0 29-23 52-53 53h-216c-29 0-53-24-53-53s24-53 53-53h15l-55-207c-2-7 3-15 10-17 7-2 15 2 17 9l22 81 100 38 100-38 22-81c1-7 9-11 16-10 8 2 13 10 10 17l-55 207h15c29 1 52 25 52 54z m-252-154l9 36 43-17-52-19z m91 34l-75 28 10 39h129l11-39-75-28z m39-15l43 17 9-36-52 19z m-147 109c-14 0-25 12-25 26s12 25 26 26h216c14 0 25-12 25-26s-11-26-25-26h-217z m589 255l0 0c-70 32-98-21-113-50-3-6-5-11-10-16-6 6-11 13-14 21-2 32-10 56-25 73v347c0 7-6 13-13 14h-414c-8 0-13-7-14-14v-512c0-8 6-13 13-14h343c3-6 7-11 12-15 27-25 38-70 43-96 0-2 0-6 1-8h-6c-22 0-39-19-36-41l19-162c3-19 18-33 37-33h112c18 0 34 14 36 33l20 162c2 22-15 41-37 41h-8c0 12 0 26 0 42-1 13 11 22 29 35 18 15 42 32 32 61-4 10 3 26 10 43 11 27 28 69-17 89z m-253-124h-322v485h385v-315c-9 3-18 4-28 3v271c0 8-6 13-13 14h-303c-8 0-13-6-14-13v-403c0-8 6-14 13-14h284c-2-10-2-18-2-28z m8 163c-12-6-21-17-25-30-9-30 12-62 18-72 1-1 2-3 2-5h-270l0 40c37 7 77 6 113-3 45-9 60 17 74 40 15 26 30 52 88 56v-26z m-113-17c-13-22-18-32-43-26-39 9-80 10-120 4v306h275v-214h1c-73-4-96-42-113-70z m142-167l0 0c-17 15-4 57-4 63 1 12-2 24-9 34-10 13-18 34-14 49 7 20 38 29 57 12 21-19 20-59 22-64 5-12 12-23 21-32-11-6-18-13-25-22-6 14-9 30-10 45 0 8-5 14-13 14s-14-5-14-13c-2-43 27-87 33-98 8-11 7-20 1-28-4-4-7-9-9-15-8 21-20 39-36 55z m169-152c7 0 11-5 11-11l-20-162c-1-5-5-9-9-9h-112c-5 0-9 4-9 9l-20 162c-1 5 4 11 9 11h150z m38 218c-9-21-18-43-10-63 3-8-3-14-23-29-19-14-42-31-40-60 1-15 2-28 1-39h-28c2 38 15 142 68 176 6 4 8 12 4 19s-13 7-19 4c-65-43-78-159-80-199h-26c-1 3-1 6-2 11-1 17 1 41 14 56 10 14 14 31 7 46-22 53 23 38 50 89 21 39 35 65 81 44 19-9 18-19 3-55z" horiz-adv-x="1000" />

<glyph glyph-name="kitchen" unicode="&#xe85a;" d="M465 657l-74 89v57c0 9-7 16-16 16h-250c-9 0-16-7-16-16v-57l-74-89c-4-5-5-11-2-17 2-5 8-9 14-9h406c6 0 12 4 14 9 3 6 2 12-2 17z m-324 131h218v-32h-218v32z m-61-125l52 62h236l52-62h-340z m858 156h-407c-8 0-15-7-15-16v-187c0-9 7-16 15-16h407c8 0 15 7 15 16v187c0 9-7 16-15 16z m-297-188h-32v47h32v-47z m125 0h-32v94h32v-94z m109 0h-31v47c0 9 7 16 15 16 9 0 16-7 16-16v-47z m47 0h-16v47c0 20-13 38-31 44v19h-31v-19c-18-6-31-24-31-44v-47h-16v110c0 8-7 15-16 15h-62c-9 0-16-7-16-15v-110h-31v47h16v31h-47v32h-32v-32h-46v-31h15v-47h-31v157h375v-157z m-781 78h31v-31h-31v31z m62 0h31v-31h-31v31z m750-328h-31v172c0 9-7 16-16 16h-343c-9 0-16-7-16-16v-172h-109v32h-32v-32h-62v32h-31v-32h-94v16h15c9 0 16 7 16 16v78h16v31h-32-156-31v-31h16v-78c0-9 7-16 15-16h16v-16h-47c-9 0-16-7-16-15v-63-406c0-9 7-16 16-16h906c9 0 16 7 16 16v406 63c0 8-7 15-16 15z m-140 157h78v-157h-78v157z m-235 0h203v-157h-203v157z m-484-47h125v-63h-125v63z m94-94v-16h-63v16h63z m281-485h-406v376h406v-376z m0 407h-406v31h406v-31z m469-407h-438v251h438v-251z m0 282h-438v94h438v-94z m0 125h-438v31h63 343 32v-31z m-188 203h-141c-8 0-15-7-15-16v-93c0-9 7-16 15-16h141c9 0 16 7 16 16v93c0 9-7 16-16 16z m-16-94h-109v63h109v-63z m-625-484h313c9 0 16 7 16 15v219c0 9-7 16-16 16h-313c-8 0-15-7-15-16v-219c0-8 7-15 15-15z m16 219h281v-188h-281v188z" horiz-adv-x="1000" />

<glyph glyph-name="cradle" unicode="&#xe85b;" d="M962-28c-2 8-7 15-13 20-9 7-21 10-32 7-40-9-80-16-121-21l-19 132c56 31 90 91 90 155v104c19 8 29 29 21 48-6 15-19 24-34 24h-29v241c0 59-48 108-108 108h-42c-6 14-19 23-34 23h-282c-15 0-28-9-34-23h-42c-60 0-108-49-108-108v-241h-28c-21 0-38-17-38-37 0-15 10-29 24-35v-104c0-65 34-124 90-155l-19-132c-41 5-81 12-121 21-20 5-40-7-45-27s7-40 27-45c102-25 264-40 435-40 171 0 334 15 435 40 20 5 32 25 27 45z m-122 341l-45-24-53 28c-4 2-9 2-13 0l-52-28-53 28c-4 2-9 2-13 0l-52-28-53 28c-4 2-9 2-13 0l-52-28-53 28c-4 2-9 2-13 0l-52-28-53 28c-4 2-9 2-13 0l-52-28-45 24v54h680v-54z m-481 473h282c5 0 9-5 9-10s-4-10-9-10h-282c-5 0-9 4-9 10s4 10 9 10z m281-190l1-5-4 3c-4 2-9 2-13 0l-5-3 1 5c1 5-1 9-4 12l-3 4 5 1c4 0 8 3 10 7l2 4 2-4c2-4 6-7 11-7l5-1-4-4c-3-3-4-7-4-12z m-260 0l1-5-5 3c-4 2-9 2-13 0l-4-3 1 5c0 5-1 9-4 12l-4 4 5 1c5 0 8 3 10 7l3 4 2-4c2-4 6-7 10-7l5-1-4-4c-2-3-4-7-3-12z m-177 86c0 44 36 80 80 80h42c5-13 17-22 31-23v-80l-10-20-25-4c-7-1-13-8-11-16 0-3 1-5 4-7l18-18-4-25c-2-8 3-15 11-16 3-1 6 0 8 1l23 12 23-12c6-3 14-1 18 6 2 3 2 5 2 8l-5 26 19 17c5 6 5 14 0 20-2 2-5 3-8 4l-25 3-11 21v80h103v-120c-32-8-53-40-45-73 8-33 40-53 73-45 32 7 53 40 45 72-5 23-23 40-45 46v120h103v-80l-10-20-26-4c-7-1-12-8-11-16 0-3 2-5 4-7l18-18-4-25c-1-8 4-15 11-16 3-1 6 0 9 1l22 12 23-12c7-3 15-1 19 6 1 3 1 5 1 8l-4 26 18 17c5 6 5 14 0 20-2 2-5 3-8 4l-25 3-10 21v80c14 1 26 10 31 23h42c45 0 81-36 81-80v-241h-595v241z m297-89c18 0 33-15 33-33s-15-34-33-34-33 15-33 34c0 18 15 33 33 33z m-353-199l0 0c-6 0-10 4-10 10 0 5 4 10 10 10h0 0 707c5 0 9-5 9-10 0-6-4-10-9-10h0c-1 0-1 0-1 0h-706c0 0 0 0 0 0z m13-129v17l39-20c4-2 9-2 13 0l53 28 52-28c4-2 9-2 13 0l52 28 53-28c4-2 9-2 13 0l52 28 53-28c4-2 9-2 13 0l52 28 53-28c4-2 9-2 13 0l52 28 53-28c4-2 9-2 13 0l39 20v-17c0-84-68-151-151-151h-379c-83 0-151 67-151 151z m609-290c-6-1-13-2-19-2l-18 118c7 2 13 4 19 6l18-122z m-46-5c-69-5-145-9-223-9-78 0-154 3-222 9l17 117c5 0 11-1 16-1h378c5 0 11 1 16 1l18-117z m-455 122l-18-119c-6 0-13 1-19 2l18 123c6-3 13-5 19-6z m668-129c0 0 0 0 0 0 0-5-3-9-8-10-99-24-259-39-428-39-169 0-329 15-428 39-6 2-9 7-7 12 0 2 1 4 3 5 2 2 4 2 6 3 1 0 2-1 2-1 97-24 256-38 424-38s327 14 424 38c3 1 6 0 8-2 2-1 4-4 4-7 0 0 0 0 0 0l0 0z" horiz-adv-x="1000" />

<glyph glyph-name="sofa-1" unicode="&#xe85c;" d="M983 25h-50v156c47 16 74 63 66 111-7 40-38 72-77 81-2 0-4 0-5 0v52c0 74-60 133-134 133h-300c-73 0-133-59-133-133v-52c-42-6-75-39-82-81 0 0-1 0-1 0h-17v33c0 19-15 34-33 34h-50v116h33v-50c0-9 7-17 17-17s16 8 16 17v50h24c7 0 14 3 19 9 5 6 7 13 5 20l-30 184c-2 12-12 20-25 20h-152c-13 0-23-8-25-20l-30-184c-2-7 0-14 5-20 5-6 12-9 19-9h91v-117h-51c-18 0-33-14-33-33v-33h-17c-18 0-33-15-33-34v-233c0-19 15-34 33-34h484c9 0 16 8 16 17s-7 17-16 17h-50v33h333v-33h-50c-9 0-17-8-17-17s8-17 17-17h233c10 0 17 8 17 17s-7 17-17 17z m-930 483l28 167h138l28-167h-194z m30-183h134v-33h-134v33z m100-67v-52l-24 16c-5 4-12 4-18 0l-24-16v52h66z m84-233h-17-217v233h50v-83c0-6 4-12 9-15 6-3 12-2 17 1l41 27 41-27c5-3 12-4 17-1 6 3 9 9 9 15v83h50v-233z m66 0h-33v176c10-9 21-16 33-20v-156z m100 0h-66v168c0 8-6 15-13 17-25 5-45 23-51 47-7 25 1 51 19 67 12 12 28 18 45 18 2 0 4 0 6-1 35-4 61-34 60-69v-247z m367 67h-333v33h333v-33z m-333 66v67h100c27 0 50-22 50-50v-17h-150z m333 0h-150v17c0 28 23 50 50 50h100v-67z m0 117v-17h-100c-26 0-51-12-67-33-15 21-40 33-66 33h-100v14c0 49-35 92-84 102v51c0 56 45 100 100 100h134v-133c0-9 7-17 16-17s17 8 17 17v133h133c56 0 100-44 100-100v-52c-48-8-83-49-83-98z m100-82v-168h-67l0 250c0 20 9 39 25 52 12 10 26 15 42 15h0c5 0 10-1 15-2 30-7 52-34 52-66s-23-58-54-64c-7-2-13-9-13-17z m-400 249c-9 0-17-8-17-17v-17c0-9 8-16 17-16s17 7 17 16v17c0 9-8 17-17 17z m267 0c-10 0-17-8-17-17v-17c0-9 7-16 17-16 9 0 16 7 16 16v17c0 9-7 17-16 17z m-400-150c-10 0-17-8-17-17v-17c0-9 7-16 17-16s16 7 16 16v17c0 9-7 17-16 17z m533 0c-9 0-17-8-17-17v-17c0-9 8-16 17-16s17 7 17 16v17c0 9-8 17-17 17z" horiz-adv-x="1000" />

<glyph glyph-name="telephone" unicode="&#xe85d;" d="M853 703c-94 95-220 147-353 147s-259-52-353-147-147-219-147-353 52-259 147-353 219-147 353-147c78 0 148 14 204 41 54 26 92 63 109 104 21 49 9 100-31 141l-1 1c0 1 1 2 2 2 28 30 28 70-1 99l-71 72c-14 14-31 22-49 22s-35-8-49-22l-37-37c-2 1-4 2-5 2-5 3-9 5-13 7-37 24-71 55-104 95-15 18-24 34-32 49 9 9 18 17 27 26 3 4 7 7 10 11 31 30 31 69 0 100l-35 35c-4 4-8 8-12 12-8 8-16 16-24 24-14 14-31 21-49 21s-34-7-48-21c-1 0-1 0-1 0l-44-44c-18-18-28-40-30-65-3-39 8-75 17-99 21-57 53-110 100-167 57-68 126-122 205-161 30-14 71-31 116-34 3 0 6 0 9 0 32 0 59 11 80 34 0 0 0 1 1 1 0 1 1 2 2 3l1-2c26-26 34-56 21-87-24-56-116-114-268-114-249 0-451 203-451 451s202 451 451 451 450-202 450-451c0-41-5-81-16-120-3-13 4-27 18-31s26 5 30 18c12 43 18 88 18 133 0 134-52 259-147 353z m-147-571c-12-13-25-18-43-18-2 0-4 0-6 0-37 2-72 17-98 30-72 34-135 84-188 147-43 52-72 101-92 152-11 32-16 56-14 78 1 14 6 24 16 34l44 44c4 3 9 7 15 7s10-4 13-7c1 0 1 0 1 0 8-8 15-15 23-23 4-4 8-9 12-13l36-35c11-11 11-19 0-30-4-4-8-7-11-11-11-11-21-21-33-31 0 0 0-1-1-1-15-16-10-32-8-37 0-1 0-1 1-2 9-23 22-44 42-69l1-1c36-44 74-79 116-106 6-3 11-6 16-9 5-2 9-4 13-6 0-1 1-1 2-1 5-3 11-4 16-4 9 0 17 3 25 11l44 44c3 3 8 8 14 8 6 0 11-4 14-8 0 0 0 0 0 0l71-71c10-10 10-20 0-30l0-1c-5-5-10-10-16-15-8-8-17-17-25-26z" horiz-adv-x="1000" />

<glyph glyph-name="shield" unicode="&#xe85e;" d="M936 637c0 39-23 65-63 70-7 1-15 2-22 3-23 3-44 5-64 9-79 18-155 53-239 112-14 10-30 19-48 19-18 0-33-9-47-18-113-78-215-118-320-124-45-3-69-29-69-75 0-27 0-55 0-82v-1c0-76 0-155 0-232 1-29 4-59 11-90 16-71 53-135 113-195 75-76 169-134 286-178 8-3 17-5 26-5 10 0 21 2 31 6 6 3 13 6 19 9l1 0c28 12 58 25 86 40 96 50 168 110 222 183 48 64 72 130 75 199 1 13 1 28 1 44l1 128c0 1 0 2 0 2v50c0 42 0 84 0 126z m-50-175c0-1 0-1 0-2l-1-129c0-15 0-29-1-42-2-59-24-115-66-172-48-66-115-121-204-168-27-14-55-26-83-38l-1 0c-6-3-13-6-19-9-4-1-8-2-12-2-3 0-5 0-8 1-110 42-198 96-268 167-52 53-85 110-99 171-6 27-10 54-10 79-1 77 0 156 0 232v1c0 27 0 55 0 82 0 10 1 17 4 20 3 2 9 4 19 5 114 7 224 49 344 133 10 6 16 9 19 9s10-3 19-10c90-62 172-100 258-119 22-5 44-8 68-10 7-1 15-2 22-3 15-2 20-7 20-21 0-42 0-84 0-125l-1-50z m-351-86h-70c-28 0-51 23-51 51s23 51 51 51h123c13 0 25 11 25 25s-12 25-25 25h-63v48c0 14-11 25-25 25s-25-11-25-25v-48h-10c-55 0-101-45-101-101 0-56 45-101 101-101h70c28 0 51-23 51-52s-23-51-51-51h-125c-14 0-25-11-25-25s11-25 25-25h65v-49c0-13 11-25 25-25s25 12 25 25v49h11c0 0 0 0 0 0 55 1 100 46 100 101 0 56-45 102-101 102z" horiz-adv-x="1000" />

<glyph glyph-name="dressing-table-1" unicode="&#xe85f;" d="M693 181h-73c-7 0-13-6-13-13s6-14 13-14h73c7 0 13 6 13 14s-6 13-13 13z m-386-27h73c7 0 13 6 13 14s-6 13-13 13h-73c-7 0-13-6-13-13s6-14 13-14z m576 145c-2 26-24 46-49 44h-92v349c0 7-6 13-14 13s-13-6-13-13v-112h-67c1 10 2 20 2 30 0 118-68 213-152 213s-151-95-151-213c0-10 0-20 1-30h-63v112c0 7-6 13-13 13s-14-6-14-13v-349h-91c-2 0-4 0-5 0-26-1-46-23-45-49 2-24 22-43 45-44v-160c0 0 0 0 0 0 1-17 15-32 32-32h41v-168c0-7 6-13 14-13 7 0 13 6 13 13v168h476v-168c0-7 6-13 14-13 7 0 13 6 13 13v168h41c0 0 0 0 0 0 18 0 32 15 32 32v160c0 0 1 0 1 0 26 1 45 23 44 49z m-385 497c69 0 125-83 125-186 0-14-1-28-3-41-1 0-1-1-1-2-13-82-62-143-121-143-59 0-108 61-121 143 0 1 0 2 0 2-2 13-3 27-3 41 0 103 56 186 124 186z m-213-243h67c18-90 77-156 146-156 70 0 128 66 146 156h71v-210h-430v210z m-91-467c0 0 0 0 0 0-3 0-5 2-5 4v160h297v-164h-292z m612 0h-292v164h296v-160c0-2-2-4-4-4z m49 209c-1-11-10-19-21-18h-10-648-10c-1 0-2 0-3 0-11 1-19 10-18 21 1 11 10 19 21 18h106 456 106c1 0 2 0 3 0 11-1 19-10 18-21z" horiz-adv-x="1000" />

<glyph glyph-name="alarm-clock" unicode="&#xe860;" d="M500 663c-181 0-327-147-327-328 0-180 146-327 327-327v0c181 0 327 147 327 328 0 180-146 327-327 327z m300-328c0-165-134-300-300-300s-300 135-300 300 134 301 300 301c166-1 300-135 300-301 0 0 0 0 0 0z m-300 155c-7 0-13-6-13-14v-135l-44-43c0 0 0 0 0 0-5-6-5-14 0-19 3-3 6-4 10-4h0c3 0 7 1 9 4l48 47c2 3 4 6 4 10v140c0 8-7 14-14 14z m402 134c25 81-20 167-101 192-77 24-157-15-187-88-36 11-74 16-114 16-40 0-78-5-114-16-12 29-32 54-59 71-71 45-166 24-212-47-42-67-26-156 36-204-38-62-60-134-60-213 0-116 49-221 128-296l-55-77c-2-3-2-7-2-10 1-4 3-7 6-9l90-64c3-1 5-2 8-2v0c1 0 1 0 2 0 4 1 7 3 9 6l56 79c51-22 107-35 167-35 59 0 116 13 167 36l56-80c1-3 5-5 8-6 1 0 2 0 2 0v0c3 0 6 1 8 3l90 63c3 2 5 5 6 9 0 3 0 7-2 10l-55 78c79 74 128 179 128 296 0 0 0 0 0 0 0 78-22 151-60 213 26 18 44 45 54 75z m-214 153c59 37 137 19 174-39 35-56 22-127-28-167-48 68-115 120-194 149 10 23 26 43 48 57z m-564-144c-20 66 17 137 83 157 63 19 128-12 153-70-79-29-146-81-194-149-20 16-34 37-42 62z m139-724l-69 48 45 64c21-18 44-34 69-47l-45-65z m543 48l-69-48-46 66c25 13 48 28 70 46l45-64z m75 378c0-111-47-211-123-280-1-1-3-2-4-3-1-1-3-3-4-4-25-22-53-41-83-56-1 0-2-1-2-1-50-24-106-38-165-38-59 0-114 14-163 37 0 0-1 0-1 1-1 1-3 1-5 2-126 62-213 192-213 342 0 77 23 148 62 208 0 0 1 1 1 2 0 0 0 0 0 0 1 1 1 1 1 2 47 70 116 123 197 151 1 0 2 0 3 0 1 0 2 1 3 1 36 12 75 18 115 18 41 0 81-6 118-19 0 0 0 0 0 0 0 0 0 0 1 0 152-50 262-193 263-362-1-1-1-1-1-1z m-381 245c-7 0-13-6-13-14v-13c0-8 6-14 13-14s14 6 14 14v13c0 8-7 14-14 14z m0-448c-7 0-13-6-13-14v-13c0-8 6-14 13-14s14 6 14 14v13c0 8-7 14-14 14z m204 203c0-7 6-13 13-13h14c7 0 13 6 13 13 0 8-6 14-13 14h-14c-7 0-13-6-13-14z m-421 14h-14c-7 0-13-6-13-14 0-7 6-13 13-13h14c7 0 13 6 13 13 0 8-6 14-13 14z m380-158c0 0 0 0 0 0-5 6-14 6-19 0-5-5-5-14 0-19l10-9c2-3 6-4 9-4 4 0 7 1 10 4 0 0 0 0 0 0 5 5 5 13 0 19l-10 9z m-317 317c0 0 0 0 0 0-5 6-14 6-19 0-5-5-5-14 0-19l10-9c2-3 6-4 9-4 4 0 7 1 10 4 0 0 0 0 0 0 5 5 5 13 0 19l-10 9z m308-32l0 0c3 0 7 1 9 4l10 9c5 5 5 14 0 19 0 0 0 0 0 0-5 6-14 6-19 0l-10-9c0 0 0 0 0 0-5-5-5-14 0-19 3-3 6-4 10-4z m-298-285c-5 6-14 6-19 0l-10-9c0 0 0 0 0 0-5-5-5-14 0-19 3-3 6-4 10-4 3 0 7 1 9 4l10 9c5 5 5 14 0 19 0 0 0 0 0 0z" horiz-adv-x="1000" />

<glyph glyph-name="pillow" unicode="&#xe861;" d="M973-55c-2 17-7 34-13 51-10 24-15 50-15 76-1 20-1 40 1 61 2 21 3 42 2 64 1 21 0 42-2 64-2 20-2 41-1 61 0 26 5 51 15 76 6 16 11 33 13 50 1 10-2 20-9 27-6 6-16 10-24 9-12-2-23-5-33-10l-1-1c-15-8-32-13-49-16-24-4-48-5-72-3 6 9 13 18 21 27 12 12 22 27 31 42 4 8 5 18 1 27-3 8-10 15-19 18-11 3-23 4-35 2-17-2-34-1-51 3-34 7-67 20-96 38-33 20-68 37-105 50-36 15-73 27-111 34-34 7-67 19-97 37-14 8-27 20-38 33l-1 1c-7 8-17 15-27 21-8 4-18 4-26 0-9-4-15-12-17-21-4-14-6-28-6-42-1-35-8-69-19-101-6-15-12-29-19-43-9-19-18-38-25-58-8-20-15-41-21-61-4-15-9-29-15-43-14-32-32-61-54-87-9-11-17-23-24-35-5-8-5-18-2-27 4-8 11-15 20-17 11-3 23-4 35-3 17 2 35 1 52-3 33-7 65-20 94-37 31-19 64-35 98-47 1-10 1-20 2-30 2-15 2-30 2-45-1-35-7-69-19-101-4-14-8-27-9-41-2-10 1-19 8-26 6-6 14-9 22-9l3 0c11 1 22 4 33 9h1c15 9 32 14 49 16 34 6 68 6 102 0 38-6 77-9 116-7 39-2 78 1 117 7 34 6 68 6 102 0 17-2 33-7 49-16h1c10-5 21-8 32-9 10-1 19 2 25 9 6 7 9 17 8 26z m-833 328c-19 5-40 6-60 4-8-1-16 0-24 2-1 0-2 1-2 2-1 1-1 2 0 3 6 11 13 22 21 31 25 29 45 60 59 95 6 15 12 30 16 46 6 19 13 39 20 58 7 19 15 38 25 56 7 14 13 29 19 44 13 35 20 72 21 109 0 13 2 25 5 37 1 2 1 3 3 3 0 1 1 1 2 0 7-4 13-8 19-14 13-16 28-29 46-39 33-20 68-33 105-41 36-7 72-18 106-33l2-1c34-12 68-28 100-47 32-20 67-34 104-41 20-5 40-6 60-3 8 0 16 0 24-2 1-1 2-1 2-2 1-1 1-3 0-4-7-14-16-26-27-38-12-12-22-26-31-41-1 0-1 0-2 0-38 7-77 9-115 8-39 1-78-1-116-8-34-6-69-6-103 0-17 3-33 8-48 16l-1 1c-10 5-21 8-32 9-10 1-19-2-26-9-6-7-9-17-8-26 2-14 5-28 9-42 12-32 18-66 19-101 1-15 0-30-1-45-3-21-3-42-3-64 0-1 0-3 0-5-29 11-58 25-85 41-31 20-66 34-103 41z m805-335c-1-1-2-1-3-1-8 1-15 3-22 7-18 10-38 16-58 19-37 7-75 7-111 0-37-6-74-9-111-7h-2c-38-1-75 1-111 7-37 7-75 7-111 0-21-2-40-9-58-19-8-3-15-6-23-7-1 0-2 0-2 1-1 1-2 3-2 4 2 12 5 24 9 36 12 35 19 72 20 110 0 16 0 32-2 48-2 21-2 41-2 62 0 20 0 40 2 60 2 16 2 33 2 49-1 37-8 74-20 109-4 12-7 24-9 36 0 2 1 3 2 4 0 1 1 1 2 1 8-1 15-3 23-6 17-11 37-17 57-20 37-6 75-6 112 0 37 7 74 9 111 8h2c37 1 74-1 110-8 37-6 75-6 113 0 20 3 39 9 57 19 7 4 15 6 23 7 1 0 1 0 2-1 1-1 1-3 1-4-2-15-6-30-11-45-10-27-16-55-17-84-1-22-1-44 1-65 3-20 3-41 3-61 0-21-1-41-3-61-2-22-2-44-1-65 1-29 7-58 17-85 5-14 9-29 11-44 0-2 0-3-1-4z" horiz-adv-x="1000" />

<glyph glyph-name="bookshelf" unicode="&#xe862;" d="M870 263v243c0 0 0 0 0 0s0 0 0 0v241c0 38-30 69-69 69h-619c-38 0-69-31-69-69v-717c0-38 31-70 69-70h4v-76c0-8 6-14 14-14h54c6 0 11 4 13 9l28 81h394l28-81c2-5 7-9 13-9h54c7 0 13 6 13 14v76h4c39 0 70 31 70 70v233c-1 0-1 0-1 0 0 0 0 0 0 0z m-113 13h-55v152h55v-152z m13 179h-82c-7 0-13-6-13-14v-165h-183c0 0 0 0 0 0s0 0 0 0h-60l55 127c0 0 0 0 0 0 3 7 0 15-7 18l-58 25c-3 1-7 1-10 0-4-1-6-4-8-7l-63-146c-1-3-1-7 0-10 1-3 3-5 6-7h-55l53 127c0 0 0 0 0 0 3 7 0 15-7 18l-58 25c-3 1-7 1-10 0-3-1-6-4-8-7l-63-146c-1-3-1-7 0-10 2-3 4-5 6-7h-65v216h82 82 289c1 0 3 0 4 0 1 0 3 0 4 0h78 82 82v-216h-59v165c0 8-6 14-14 14z m-399-160l53 120 33-14-51-120-35 14z m-141 0l52 120 33-14-52-120-33 14z m61 224h-55v180h55v-180z m248 26l72 165 50-22-71-165-51 22z m126 84v-110h-47l47 110z m83-110h-55v180h55v-180z m-566 270h619c24 0 42-18 42-42v-228h-68v193c0 8-6 14-14 14h-82c-6 0-12-5-13-11l-57 25c-7 3-15 0-18-7l-82-190c-1-3-1-7 0-10 1-3 4-6 7-7l15-7h-213v193c0 8-6 14-14 14h-82c-7 0-13-6-13-14v-193h-69v228c0 23 19 42 42 42z m-42-759v219h338v-261h-193-86-17c-23 0-42 18-42 42z m105-133h-32l0 63h53l-21-63z m525 0h-31l-21 63h52v-63z m31 91h-17-85-194v261h183 82 73v-219c0-24-18-42-42-42z m-249 181c-8 0-14-6-14-13v-68c0-7 6-13 14-13 7 0 13 6 13 13v68c0 7-6 13-13 13z m-118-94c7 0 14 6 14 13v68c0 7-7 13-14 13-7 0-13-6-13-13v-68c0-7 6-13 13-13z" horiz-adv-x="1000" />

<glyph glyph-name="seat" unicode="&#xe863;" d="M767 306h-68v261h31c15 0 28 13 29 28l11 197c0 1 0 1 0 2 0 16-13 29-30 29h-487c-1 0-1 0-2 0-16-1-28-15-27-31l11-197c1-15 13-28 29-28h30v-261h-67c-8 0-14-7-14-14v-91c0-8 6-14 14-14h15v-296c0-8 6-14 14-14h86c7 0 13 6 13 14v169h283v-169c0-8 6-14 14-14h86c7 0 13 6 13 14v296h16c7 0 13 6 13 14v91c1 7-6 14-13 14z m-505 291l-11 197c0 0 0 1 0 1 1 1 1 1 2 1h487c1 0 2 0 2-1 1 0 1-1 1-1l-11-197c0-1-1-2-2-2h-466c-1 0-2 0-2 2z m59-30h351v-261h-351v261z m-52-663v283h59v-113c0 0 0 0 0 0s0 0 0 0v-170h-59z m86 183v100h283v-100h-283z m369-183h-59v283h59v-283z m30 310h-16c0 0 0 0 0 0h-86c0 0 0 0 0 0h-310c0 0 0 0 0 0h-86c0 0 0 0 0 0h-16v65h67 379 68v-65z m-115 552c-7 0-13-6-13-13v-115c0-8 6-14 13-14 8 0 14 6 14 14v115c0 7-6 13-14 13z m-95 0c-7 0-13-6-13-13v-115c0-8 6-14 13-14s14 6 14 14v115c0 7-6 13-14 13z m-95 0c-7 0-13-6-13-13v-115c0-8 6-14 13-14 7 0 14 6 14 14v115c0 7-7 13-14 13z m-95 0c-7 0-14-6-14-13v-115c0-8 7-14 14-14 7 0 13 6 13 14v115c0 7-6 13-13 13z" horiz-adv-x="1000" />

<glyph glyph-name="workplace" unicode="&#xe864;" d="M959 438h-152l-29 52h62c30 0 55 25 55 54v195c0 30-25 54-55 54h-286c-30 0-54-24-54-54v-195c0-29 24-54 54-54h64l-30-52h-250v72c0 5-4 10-9 12 6 9 9 19 9 30 0 31-25 56-56 56h-160c-8 0-14-6-14-13v-85c0-5 3-9 7-12-7-9-10-21-9-33 0-10 3-19 8-26h-73c-8 0-14-7-14-14v-94c0-8 6-14 14-14h58v-397c0-7 6-13 14-13h94c8 0 14 6 14 13v218h279 279v-218c0-7 6-13 13-13h95c7 0 13 6 13 13v397h59c8 0 14 6 14 13v95c0 7-6 13-14 13z m-432 106v195c0 15 12 27 27 27h286c15 0 27-12 27-27v-195c0-14-12-27-27-27h-85-114-87c-15 0-27 13-27 27z m122-54h98l29-52h-157l30 52z m-514 91h147c16 0 29-13 29-29 0-16-13-29-29-29h-118c-2 0-4 0-5 0h-24v58z m-2-112c1 15 13 26 27 27h4 118 29v-57h-147-4c-16 1-28 14-27 30z m61-535h-68v383h68v-165-218z m27 383h266v-152h-266v152z m293-152v152h265v-152h-265z m359-231h-67v215c0 1 0 2 0 3v165h67v-383z m73 410h-59-94-1-292-293-94-59v67h105c1 0 3 0 5 0h160 272 203l0 0c1 0 2 0 3 0h144v-67z" horiz-adv-x="1000" />

<glyph glyph-name="closet" unicode="&#xe865;" d="M878 823h-756c-14 0-25-11-25-25v-74c0-13 11-25 25-25h20v-725c0-8 6-14 14-14h35v-69c0-8 7-14 14-14h40c3 0 7 1 9 4l50 49c2 3 3 6 3 10v20h385v-20c0-4 2-7 4-10l50-49c2-3 6-4 9-4h40c7 0 13 6 13 14v69h37c7 0 13 6 13 14v725h20c14 0 26 12 26 25v74c0 14-12 25-26 25z m-597-878l-42-41h-20v56h62v-15z m-112 754h318v-712h-193-89-36v712z m612-795h-20l-41 41v15h62v-56z m50 83h-36-89-192v712h317v-712z m45 739h-31c0 0 0 0 0 0h-689c0 0 0 0 0 0h-32l0 70h752v-70z m-296-450c8 0 14 6 14 14v104c0 7-6 13-14 13-7 0-13-6-13-13v-104c-1-8 6-14 13-14z m-160 0l0 0c7 0 13 6 13 14v104c0 7-6 13-13 13-7 0-14-6-14-13v-104c0-8 7-14 14-14z" horiz-adv-x="1000" />

<glyph glyph-name="office-table" unicode="&#xe866;" d="M959 740h-918c-8 0-14-6-14-13v-109c0-8 6-14 14-14h50v-481-149c0-8 6-14 13-14 8 0 14 6 14 14v135h267c7 0 13 6 13 14v481h160v-157-174c0-7 6-13 13-13h320v-287c0-7 6-13 13-13 8 0 14 6 14 13v300 0 174 157h41c8 0 14 6 14 14v109c0 7-6 13-14 13z m-588-603h-253v467h253v-467z m214 296h306v-146h-306v146z m306 27h-306v144h306v-144z m55 171h-42-333-186-281-50v82h892v-82z m-627-307c7 0 13 6 13 13v78c0 7-6 13-13 13s-13-6-13-13v-78c0-7 6-13 13-13z m449 41h-62c-8 0-14-6-14-13s6-14 14-14h62c8 0 14 6 14 14s-6 13-14 13z m-62 151h62c8 0 14 7 14 14 0 7-6 13-14 13h-62c-8 0-14-6-14-13 0-7 6-14 14-14z" horiz-adv-x="1000" />

<glyph glyph-name="table-lamp" unicode="&#xe867;" d="M972 343l-130 437c-6 20-24 34-46 35h-593c-22-1-40-15-46-35l-130-437c-1-5 1-11 5-14 4-3 10-4 15-1 156 86 307 58 387 32v-352h-3 0c-51 0-92-41-92-91v-18c0-7 6-13 14-13h293 0c7 0 13 6 13 13v17c0 0 0 0 0 0 0 51-40 92-91 92h-3v295c51-19 106-29 162-28 82 0 163 18 238 52 6 3 9 10 7 16z m-339-427v-3h-267v3c0 36 29 65 65 65h17 103 17c36 0 65-29 65-65z m-95 92h-77v343c20-8 31-14 32-14 14-9 29-16 45-23v-306z m-32 352c-17 8-33 15-51 21-2 1-4 2-6 2-57 20-116 30-176 30h0c-73 0-145-16-211-48l120 407c3 9 11 15 21 15h593c9 0 18-6 20-15l127-426c-47-20-248-96-437 14z" horiz-adv-x="1000" />

<glyph glyph-name="mirror" unicode="&#xe868;" d="M831 502c0 7-6 13-13 13h-54c-4 171-120 308-263 308s-258-137-262-308h-57c-7 0-13-6-13-13 0-201 122-368 280-398v-125h-38c-25 0-44-19-44-44v-44c0-8 6-14 13-14h240c7 0 13 6 13 14v44c0 25-19 44-43 44h-39v125c159 30 280 197 280 398z m-330 294c130 0 236-130 236-289 0-1 0-1 0-2 0-1 0-2 0-3 0-1 0-2 0-3-3-156-108-282-236-282-129 0-235 130-235 290s106 289 235 289z m-305-308h43c8-166 123-298 262-298 140 0 255 132 263 298h40c-5-186-120-337-268-359 0 0-1 0-1 0-12-2-23-3-35-3-164 0-298 162-304 362z m410-553v-31h-212v31c0 9 7 17 16 17h53 74 53c9 0 16-8 16-17z m-82 44h-48v121c8 0 16-1 24-1 8 0 16 1 24 1v-121z m-23 291c109 0 197 106 197 237s-88 236-197 236-197-106-197-236 89-237 197-237z m0 446v0c94 0 171-94 171-210s-77-209-171-209-170 94-170 209c0 115 77 210 170 210z" horiz-adv-x="1000" />

<glyph glyph-name="closet-4" unicode="&#xe869;" d="M958 819c-2 2-6 4-10 4h-896c-1 0-1 0-2 0-7-1-12-8-11-15 3-45 31-83 73-99v-758c0-7 6-14 13-14h45v-46c0-8 6-14 13-14h82c7 0 13 6 13 14v46h444v-46c0-8 6-14 13-14h81c8 0 14 6 14 14v46h45c7 0 13 7 13 14v758c43 16 68 48 73 99 1 4 0 8-3 11z m-819-114h348v-741h-222-81-45v741z m112-801h-54v33h54v-33z m552 0h-54v33h54v-33z m58 60h-45-81-221v741h347v-741z m12 768h-745 0c-31 9-54 33-60 64h864c-5-31-28-56-59-64z m-657-427h192c0 0 0 0 0 0 8 0 14 6 14 13v294c0 8-6 14-14 14h-192c-7 0-13-6-13-14v-293c0-8 6-14 13-14z m14 293h164v-266h-165l1 266z m354-334c7 0 13 6 13 14v117c0 7-6 13-13 13-8 0-14-6-14-13v-117c0-8 6-14 14-14z" horiz-adv-x="1000" />

<glyph glyph-name="cabinet-1" unicode="&#xe86a;" d="M947 729h-894c-14 0-26-11-26-26v-63c0 0 0 0 0 0 0-14 12-26 26-26h29v-561c0-8 6-14 14-14h62v-55c0-7 6-14 14-14h85c0 0 0 0 1 0 7 1 13 7 12 15v54h64 332 64v-55c0-7 6-14 13-14h86c0 0 1 0 1 0 7 1 13 7 12 15v54h62c8 0 14 6 14 14v561h29c0 0 0 0 0 0 15 0 26 12 26 26v63c0 15-12 26-26 26z m-838-115h212v-548h-64-85-63v548z m239-194h304v-164h-304v164z m304 27h-304v167h304v-167z m-409-449h-58v41h58v-41z m105 68v162h304v-162h-304z m467-68h-58l0 41h58v-41z m76 68h-63-85-64v548h212v-548z m55 575h-42-238-332-238-42v61h892v-61z m-211-358l0 0c8 0 14 6 14 14v78c0 8-6 14-14 14-7 0-13-6-13-14v-78c0-8 6-14 13-14z m-471 0l0 0c7 0 13 6 13 14v78c0 8-6 14-13 14-8 0-14-6-14-14v-78c0-8 6-14 14-14z m207 232h58c8 0 14 6 14 14 0 7-6 13-14 13h-58c-7 0-14-6-14-13 0-8 6-14 14-14z m58-164h-58c-8 0-14-6-14-13 0-8 6-14 14-14h58c8 0 14 6 14 14 0 7-6 13-14 13z m0-190h-58c-8 0-14-6-14-14 0-7 6-13 14-13h58c8 0 14 6 14 13 0 8-6 14-14 14z" horiz-adv-x="1000" />

<glyph glyph-name="light-bulb" unicode="&#xe86b;" d="M739 271c66 70 98 166 87 262-21 180-183 309-363 288-157-19-278-146-290-303-7-92 26-183 90-249l13-13c40-42 60-62 62-118h-37c-8 0-14-6-14-14v-86c0-8 6-14 14-14h54v-42h-68c-7 0-13-6-13-14s6-13 13-13h68v-31c0-26 21-47 47-47h196 0c26 0 47 21 47 47v31h68c7 0 13 6 13 13s-6 14-13 14h-68v42h54c8 0 14 6 14 14v86c0 8-6 14-14 14h-36c2 55 21 76 60 116l16 17z m-121-300c0-1 0-2 0-2s0-2 0-3v-42c0-11-9-20-20-20h-196c-11 0-20 9-20 20v100h236v-53z m68 80h-54-263-54v60h37 297 0c0 0 0 0 0 0 0 0 0 0 0 0h37v-60z m17 221c-41-42-66-68-68-134h-121v194l115 116c0 0 0 0 0 0 6 6 6 14 0 19-5 6-14 6-19 0l-110-110-110 111c-6 5-14 5-19 0 0 0 0 0 0 0-6-6-6-14 0-20l115-115v-195h-121c-3 67-29 94-70 136l-12 13c-60 61-90 144-83 229 11 144 122 261 266 278 87 10 175-19 239-79 121-114 127-304 14-425-6-7-11-12-16-18z" horiz-adv-x="1000" />

<glyph glyph-name="drawer-3" unicode="&#xe86c;" d="M959 736h-918c-8 0-14-6-14-13v-98c0-8 6-14 14-14h53v-572c0-7 6-13 13-13h61v-76c0-7 6-13 14-13h105c7 0 13 5 14 13v76h398v-76c0-7 6-13 14-13h105c7 0 13 5 13 13v76h61c8 0 14 6 14 13v572h53c8 0 14 6 14 14v98c0 7-6 13-14 13z m-838-125h83v-558h-22c0 0 0 0 0 0h-61v558z m592-558c0 0 0 0 0 0l-426 0c0 0 0 0 0 0h-56v266h538v-266h-56z m56 293h-538v266h538v-266z m-495-382h-79v62h22 57v-62z m531 0h-79v62h57 22v-62z m74 89h-61c0 0 0 0 0 0h-22v558h83v-558z m67 585h-53-111-565-110-53v71h892v-71z m-495-171h97c7 0 13 6 13 13s-6 14-13 14h-97c-8 0-14-6-14-14s6-13 14-13z m97-269h-97c-7 0-13-6-13-14s6-13 13-13h97c8 0 14 6 14 13s-6 14-14 14z" horiz-adv-x="1000" />

<glyph glyph-name="bed" unicode="&#xe86d;" d="M973 260c-1 31-15 61-38 82v262c0 40-33 73-73 73h-724c-40 0-73-33-73-73v-263c-23-20-37-50-38-81 0-1 0-1 0-2v-221c0-8 6-14 14-14h88c6 0 11 4 13 10l5 17c15 53 64 90 120 90h471c56 0 105-37 120-90l5-17c2-6 7-10 13-10h83c8 0 14 6 14 14v221c0 1 0 1 0 2z m-835 390h724c25 0 46-21 46-46v-243c-20 11-42 21-65 29v33c0 51-41 92-92 92h-158c-46 1-84-32-92-76 0 0-1 0-1 0 0 0 0 0-1 0-7 43-45 77-91 76h-159c-51 0-92-41-92-92v-33c-23-8-45-18-65-29v243c0 25 21 46 46 46z m46-251v24c0 37 29 66 65 66h159c31 0 57-21 64-50-55-1-181-6-288-40z m632 0c-107 33-232 39-287 40 7 28 33 49 63 49h159c36 0 65-29 65-65v-24z m-725-72c130 91 406 85 409 85 3 0 279 6 409-85 1 0 2-1 3-2 0 0 1-1 2-1 16-13 26-32 30-52h-888c4 22 17 42 35 55z m855-277h-59l-2 7c-19 65-78 110-146 110h-472c-68 0-127-45-146-110l-2-7h-65v195h892v-195z" horiz-adv-x="1000" />

<glyph glyph-name="closet-1" unicode="&#xe86e;" d="M973 770c0 29-24 53-53 53h-267-306-267c0 0 0 0 0 0-29 0-53-24-53-53v-747c0 0 0 0 0 0 0-29 24-53 53-53h47v-80c0-7 6-13 13-13h68c6 0 11 3 13 9l29 84h97 306 98l29-84c2-5 7-9 13-9h67c0 0 0 0 0 0 8 0 14 6 14 13v80h46c0 0 0 0 0 0 29 0 53 24 53 53v747c0 0 0 0 0 0z m-893-772c-14 0-26 11-26 25v747c0 0 0 0 0 0 0 14 12 26 26 26h254v-798h-93-101-60z m119-94h-45l0 67h68l-23-67z m161 892h280v-798h-280v798z m487-892h-45l-23 67h68v-67z m99 119c0 0 0 0 0 0 0-14-12-26-26-25h-60-100-94v798h254c0 0 0 0 0 0 14 0 26-12 26-26v-747z m-76 709h-134c-8 0-14-6-14-13s6-14 14-14h134c7 0 13 6 13 14s-6 13-13 13z m0-75h-134c-8 0-14-6-14-13s6-14 14-14h134c7 0 13 6 13 14s-6 13-13 13z m0-498h-134c-8 0-14-6-14-13 0-7 6-14 14-14h134c7 0 13 7 13 14 0 7-6 13-13 13z m0-75h-134c-8 0-14-6-14-13 0-8 6-14 14-14h134c7 0 13 6 13 14 0 7-6 13-13 13z m-289 648h-162c-7 0-13-6-13-13s6-14 13-14h162c8 0 14 6 14 14s-6 13-14 13z m0-75h-162c-7 0-13-6-13-13s6-14 13-14h162c8 0 14 6 14 14s-6 13-14 13z m0-498h-162c-7 0-13-6-13-13 0-7 6-14 13-14h162c8 0 14 7 14 14 0 7-6 13-14 13z m0-75h-162c-7 0-13-6-13-13 0-8 6-14 13-14h162c8 0 14 6 14 14 0 7-6 13-14 13z m-451 621h134c8 0 14 6 14 14s-6 13-14 13h-134c-7 0-13-6-13-13s6-14 13-14z m0-75h134c8 0 14 6 14 14s-6 13-14 13h-134c-7 0-13-6-13-13s6-14 13-14z m0-498h134c8 0 14 6 14 14 0 7-6 13-14 13h-134c-7 0-13-6-13-13 0-8 6-14 13-14z m148-61c0 7-6 13-14 13h-134c-7 0-13-6-13-13 0-8 6-14 13-14h134c8 0 14 6 14 14z m486 249c31 0 56 25 56 55 0 31-25 56-56 56s-56-25-56-56 25-55 56-55z m0 84c16 0 29-13 29-29s-13-28-29-28c-16 0-29 13-29 28s13 29 29 29z m-297-84c31 0 56 25 56 55 0 31-25 56-56 56-31 0-56-25-56-55s25-56 56-56z m0 84c0 0 0 0 0 0 16 0 29-13 29-29 0-15-13-28-29-28-16 0-29 12-29 28s13 29 29 29z m-294-84c31 0 56 25 56 55 0 31-25 56-56 56s-56-25-56-56 25-55 56-55z m0 84c16 0 28-13 28-29s-12-28-28-28c-16 0-29 13-29 28 0 16 13 29 29 29z" horiz-adv-x="1000" />

<glyph glyph-name="dinner-table" unicode="&#xe86f;" d="M959 727h-918c-8 0-14-6-14-14v-110c0-8 6-14 14-14h60v-88c0-7 6-13 14-13h83l-105-444c0-1 0-2 0-3 0-8 6-14 14-13h100c7 0 12 4 13 10l107 450h346l106-450c2-7 7-11 14-11h100c1 0 2 0 4 1 7 2 11 9 9 16l-105 443h84c7 0 13 6 13 14v88h62c7 0 13 6 13 14v110c0 8-6 14-14 14z m-763-673h-72l102 433h73l-103-433z m608 0l-103 433h73l102-433h-72z m67 460h-743v75h743v-75z m75 102h-61-770-61v84h892v-84z" horiz-adv-x="1000" />

<glyph glyph-name="dressing-table-2" unicode="&#xe870;" d="M930 260c-1 29-26 51-54 50h-102v239c0 151-123 274-274 274-152 0-274-123-274-274v-239h-102c-29 0-52-24-52-52 0-27 20-49 47-52v-151-165c0-7 6-13 13-13h230c7 0 13 6 13 13v165 151h250v-151-165c0-7 6-13 13-13h230c7 0 13 6 13 13v165 151c29 2 51 26 49 54z m-677 289c0 136 111 247 247 247 137 0 247-111 247-247v-239h-494v239z m95-645h-202v137h203v-137z m0 164h-202v138h203v-138z m507 138v-138h-203v138h203z m0-302h-203v137h203v-137z m47 352c-1-14-12-24-26-23h-752c-1 0-2 0-3 0-14 1-24 13-23 26 1 14 13 24 26 23h115 522 115c1 0 2 0 3 0 14-1 24-12 23-26z m-182-133h66c7 0 13 7 13 14 0 7-6 13-13 13h-66c-7 0-13-6-13-13 0-7 6-14 13-14z m0-164h66c7 0 13 6 13 14s-6 13-13 13h-66c-7 0-13-6-13-13s6-14 13-14z m-506 164h66c7 0 13 7 13 14 0 7-6 13-13 13h-66c-7 0-13-6-13-13 0-7 6-14 13-14z m0-164h66c7 0 13 6 13 14s-6 13-13 13h-66c-7 0-13-6-13-13s6-14 13-14z" horiz-adv-x="1000" />

<glyph glyph-name="sofa" unicode="&#xe871;" d="M925 441c-16 3-33 0-46-9v108c0 0 0 1 0 1-1 47-39 85-86 85h-586c-47 0-85-38-85-86v-108c-14 9-30 12-47 9-28-7-48-33-48-62v-196c0 0 0 0 0-1 0-16 13-29 30-29h56l14-68c1-6 7-11 13-11h60c0 0 0 0 0 0 8 0 14 7 14 14v65h572v-65c0-7 6-14 13-14h60c7 0 12 5 14 11l14 68h56c0 0 0 0 0 0 16 0 30 13 30 30v196c0 29-19 55-48 62z m-776 100c0 0 0 0 0 0 0 32 26 58 58 58h586c32 0 58-26 58-59v-159-10h-318c-13 0-24-5-33-14-8 9-20 14-33 14h-318v10 160z m702-275c0 0 0 0 0-1 0 0 0 0 0-1 0 0 0 0 0 0 0-1 0-1 0-2 0 0-1 0-1 0 0 0 0-1 0-1 0 0 0-1-1-1 0 0 0-1-1-1 0 0 0 0 0 0-1-1-4-2-7-2h-327v68c0 11 8 20 19 20h318v-79z m-702 78h318c11 0 19-8 19-19v-68h-328c0 0 0 0 0 0-5 0-10 4-9 9v78z m38-243h-36l-10 52h46v-52z m662 0h-36v52h46l-10-52z m97 82c0-2-1-3-3-3h-67-76-599-77-67c-2 0-3 1-3 3v196c0 17 11 32 27 36 2 0 5 0 7 0 9 0 18-4 24-10 6-6 10-15 10-24v-23-92c0 0 0 0 0 0 0-4 0-8 1-11 5-15 19-26 36-25h682c0 0 0 0 1 0 0 0 0 0 0 0h0c0 0 0 0 1 0 1 0 2 0 2 0 1 0 1 0 2 0 0 0 1 0 2 0 0 0 1 1 1 1 1 0 2 0 2 0 1 0 1 0 2 1 0 0 1 0 2 0 0 1 0 1 1 1 1 0 1 0 2 1 0 0 1 0 1 0 1 1 1 1 2 2 1 0 1 0 1 0 1 1 1 1 2 2 0 0 0 1 1 1 0 0 1 1 1 1 1 0 1 1 1 1 1 1 1 1 2 2 0 0 0 0 0 1 1 0 1 1 2 2 0 0 0 0 1 0 0 1 0 2 1 2 0 1 0 1 0 1 1 1 1 2 1 3 1 0 1 1 1 1 0 1 0 1 1 2 0 1 0 1 0 1 0 1 0 2 0 3 0 0 1 1 1 1 0 1 0 2 0 2 0 2 0 3 0 4v92 23c0 9 3 17 9 24 9 8 20 12 32 9 16-4 27-18 27-35v-196z" horiz-adv-x="1000" />

<glyph glyph-name="drawer-1" unicode="&#xe872;" d="M959 792h-918c-8 0-14-6-14-13v-96c0-8 6-14 14-14h30v-748c0-7 6-13 13-13h100c7 0 14 6 14 13v394h605v-394c0-7 6-13 13-13h100c7 0 14 6 14 13v748h30c7 0 13 6 13 14v96c0 7-6 13-14 13z m-789-857h-72v734h72v-734z m633 407h-605v327h605v-327z m99-407h-72v734h72v-734z m44 761h-30-100 0-632 0-100-30v69h892v-69z m-681-300h470c7 0 13 6 13 14v192c0 7-6 13-13 13h-470c-7 0-13-6-13-13v-192c0-8 6-14 13-14z m14 192h443v-165h-443v165z m275-69h-108c-7 0-14-6-14-13s7-14 14-14h108c8 0 14 6 14 14s-6 13-14 13z" horiz-adv-x="1000" />

<glyph glyph-name="single-bed" unicode="&#xe873;" d="M947 511h-51c-15 0-26-12-26-26v-101c-9 6-20 9-32 9h-473c4 6 6 14 6 21 2 28-20 52-48 54h-112c-26-1-47-22-48-48-1-10 2-19 6-27h-6c-12 0-23-3-32-10l-1 247c0 14-11 25-24 25h-54c-14 0-25-11-25-25v-348-27-63c0-17 13-30 30-30h45v-96c0 0 0 0 0 0 0-11 10-21 21-21h53c12 0 22 10 22 21v96h604v-96 0c0-11 9-21 21-21h53c12 0 22 10 22 21v96h45c16 0 30 13 30 30v63 27 203c0 14-12 26-26 26z m-758-96c-1 14 9 25 23 26h111c12-1 22-10 23-22 1-13-9-25-23-26h-111c-13 1-22 10-23 22z m-26-49h48 112 515c18 0 32-14 32-32v-52h-739l0 52c0 18 14 32 32 32z m-109 262h50v-294-52h-50v346z m117-556h-42l0 90h42v-90z m700 0h-42l0 90h42v-90z m75 120c0-2-1-3-3-3h-45-96-604-96-45c-2 0-3 1-3 3v63h50 27 739 27 49v-63z m-49 90l0 52c0 1 0 3 0 4v146h49v-202h-49z" horiz-adv-x="1000" />

<glyph glyph-name="dressing-table-3" unicode="&#xe874;" d="M792 398h-98v353c0 8-6 14-13 14h-62c-7 10-16 18-26 26-66 51-161 40-212-26h-62c-7 0-13-6-13-14v-353h-98c-8 0-14-6-14-13v-78c0-7 6-13 14-13h27v-348c0-8 6-14 14-14h32v-41c0-8 7-14 14-14h65c7 0 13 6 13 14v41h253v-41c0-8 6-14 14-14h65c8 0 14 6 14 14v41h32c8 0 14 6 14 14v348h27c8 0 14 6 14 13v78c0 7-6 13-14 13z m-459 340h55c5 0 9 2 11 6 8 11 18 21 30 29 56 40 134 27 173-29 3-4 7-6 11-6h54v-340h-334v340z m-70-444h49v-334h-17-33v334z m97-335h-21v154h322v-154h-21-280z m301 181h-322v154h322v-154z m-314-236h-38v28h17 21v-28z m344 0h-38v28h21 17v-28z m47 55h-33-17v334h50v-334z m41 362h-28-76-349-77-27v50h98 361 98v-50z m-309-117h60c7 0 13 6 13 14 0 7-6 13-13 13h-60c-8 0-14-6-14-13 0-8 6-14 14-14z m60-156h-60c-8 0-14-6-14-13s6-13 14-13h60c7 0 13 6 13 13s-6 13-13 13z m85 643h-37c-7 28-29 50-57 58-43 11-88-14-99-58h-37c-7 0-13-6-13-13v-220c0-7 6-13 13-13h230c8 0 14 6 14 13v220c0 7-6 13-14 13z m-13-219h-203l-1 192h34c7 0 13 5 14 11v3c5 26 28 44 54 44 26 0 49-18 54-44v-3c1-6 7-11 14-11h34v-192z" horiz-adv-x="1000" />

<glyph glyph-name="drawer" unicode="&#xe875;" d="M959 742h-918c-8 0-14-6-14-14v-385c0-8 6-14 14-14h52l-34-356c-1-4 0-8 3-10 3-3 6-5 10-5h79v0c6 0 12 5 13 11l71 360h531l70-360c1-6 7-11 13-11h79c4 0 8 2 10 4 3 3 4 7 3 11l-34 356h52c8 0 14 6 14 14v385c0 8-6 14-14 14z m-13-27v-54h-892v54h892z m-806-730h-53l33 344h87l-67-344z m773 0h-53l-66 344h86l33-344z m-20 371c-1 0-2 0-3 0h-110c-2 1-4 1-6 0h-547c-1 0-1 1-1 1-2 0-4 0-6-1h-111c0 0-1 0-2 0h-53v278h892v-278h-53z m-393 204c-36 0-64-29-64-65 0-35 29-64 64-64 36 0 64 29 64 64 0 0 0 0 0 1 0 35-29 64-64 64z m37-65c0-20-17-37-37-37-21 0-38 17-37 38 0 20 16 37 37 37v-1c21 0 37-16 37-36 0-1 0-1 0-1z" horiz-adv-x="1000" />

<glyph glyph-name="stairs-1" unicode="&#xe876;" d="M834 822c-7 2-15-2-17-9l-36-112h-331l34 104c2 7-2 14-9 16-7 3-15-1-17-8l-39-118c-1-2-1-4-2-5l-71-221c-1-1-2-3-2-5l-73-222c0 0 0-1 0-1l-73-222c-1-2-1-3-1-5l-40-120c-2-7 2-15 9-17 1 0 3 0 4 0 6 0 11 3 13 8l37 113h331l-34-104c-3-7 1-15 8-17 2 0 3 0 4 0v0c6 0 11 4 13 10l39 119c1 1 1 3 2 4l72 221c1 1 1 3 1 4l147 447c0 1 0 2 0 3l13 39v-834c0-7 7-13 14-13s13 6 13 13v919c0 6-3 11-9 13z m-62-148l-65-198h-331l65 198h331z m-139-423h-331l65 198h331l-65-198z m-404-225l65 198h330l-64-198h-331z" horiz-adv-x="1000" />

<glyph glyph-name="table" unicode="&#xe877;" d="M973 498c0 1 0 1 0 1 0 1 0 1 0 1-1 3-2 5-4 7l-200 207c-3 3-6 4-10 4h-518c-4 0-7-1-10-4l-200-207c-2-2-3-4-4-7 0 0 0-1 0-1 0 0 0 0 0-1 0 0 0 0 0 0 0 0 0 0 0 0v-375c0-8 6-14 14-14 23 0 46 8 65 22 9 7 18 12 29 15v-151c0-7 6-13 14-13h83c8 0 14 6 14 13v117c8-2 16-3 24-3 24 0 47 7 66 22 28 22 68 23 97 2 1-1 1-1 2-2 0 0 0 0 0 0 19-14 41-22 65-22 23 0 46 7 65 22 27 21 65 23 93 4 1-1 2-1 3-2 1-1 2-1 3-2 26-20 60-26 90-19v-117c0-7 6-13 14-13h83c7 0 13 6 13 13v151c11-3 21-8 30-15 19-14 41-22 65-22l0 0c7 0 14 6 14 14v374c0 0 0 0 0 0 0 1 0 1 0 1z m-726 193h507l174-180h-856l175 180z m-28-682h-57v139c16-1 31-7 43-17 4-3 9-6 14-9v-113z m563 0v114c4 2 9 5 13 8 2 1 3 2 5 4 1 0 2 1 2 1 11 7 23 11 36 12v-139h-56z m164 128c-13 3-26 8-36 16-30 23-69 28-103 15v148c0 7-6 13-13 13-8 0-14-6-14-13v-162c0 0 0 0 0-1-29-22-69-22-99-1v260c0 8-6 14-13 14-8 0-14-6-14-14v-244c-12 5-25 7-39 7-13 0-25-2-37-6v147c0 7-6 13-13 13-8 0-14-6-14-13v-161c0-1-1-1-1-2-28-21-66-22-94-4v242c0 7-7 13-14 13s-13-6-13-13v-225c-24 11-51 12-76 4v134c0 8-6 14-13 14-8 0-14-6-14-14v-147c-2-1-4-2-5-3-15-12-32-18-50-18-17 0-32 5-46 14v234c0 7-6 14-13 14s-14-7-14-14v-217c-13 6-27 8-42 8-24 0-46-7-65-22-10-8-23-13-36-16v347h891v-347z" horiz-adv-x="1000" />

<glyph glyph-name="drawer-4" unicode="&#xe878;" d="M959 728h-918c-8 0-14-6-14-13v-116c0-7 6-13 14-13h49v-601c0-7 6-13 13-13 7 0 13 6 13 13v96h768v-96c0-7 6-13 13-13s14 6 14 13v601h49c0 0 0 0 0 0 7 0 13 6 13 13v116c0 7-6 13-14 13z m-843-620v229h768v-229h-768z m768 256h-768v222h768v-222z m62 249h-49-794-49v88h892v-88z m-527-155h158c7 0 13 6 13 14s-6 13-13 13h-158c-7 0-13-6-13-13s6-14 13-14z m158-222h-158c-7 0-13-6-13-13 0-8 6-14 13-14h158c7 0 13 6 13 14 0 7-6 13-13 13z" horiz-adv-x="1000" />

<glyph glyph-name="closet-3" unicode="&#xe879;" d="M595 431h155c7 0 14 6 14 14v187c0 7-7 13-14 13h-155c-8 0-14-6-14-13v-187c0-8 6-14 14-14z m13 187h129v-160h-129v160z m142-349h-155c-8 0-14-6-14-13v-188c0-7 6-13 14-13h155c7 0 14 6 14 13v188c0 7-7 13-14 13z m-13-187h-129v160h129v-160z m-487 349h156c7 0 13 6 13 14v187c0 7-6 13-13 13h-156c-7 0-13-6-13-13v-187c0-8 6-14 13-14z m14 187h128v-160h-128v160z m-14-563h156c7 0 13 6 13 13v188c0 7-6 13-13 13h-156c-7 0-13-6-13-13v-188c0-7 6-13 13-13z m14 187h128v-160h-128v160z m626 581h-780c-7 0-13-6-13-13v-84c0-7 6-13 13-13h32v-739c0-7 6-14 14-14h35v-69c0-8 7-14 14-14h40c3 0 7 2 9 4l50 50c2 2 3 6 3 9v20h193 192v-20c0-3 2-7 4-9l50-50c2-2 6-4 9-4h40c7 0 13 6 13 14v69h37c7 0 13 7 13 14v739h32c7 0 13 6 13 13v83c0 8-6 14-13 14z m-721-110h318v-726h-193-89-36v726z m112-768l-42-41h-20v56h62v-15z m500-41h-20l-41 41v15h62v-56z m50 83h-36-89-192v726h317v-726z m45 753h-31-345-344-32l0 56h752v-56z m-308-431c7 0 13 6 13 14v54c0 7-6 13-13 13s-14-6-14-13v-54c0-8 6-14 14-14z m-149 14c0-7 6-13 13-13 8 0 14 6 14 13v54c0 8-6 14-14 14-7 0-13-6-13-14v-54z" horiz-adv-x="1000" />

<glyph glyph-name="rocking-chair" unicode="&#xe87a;" d="M859 179c-26 12-56 1-68-25-5-10-10-19-16-27-4-6-8-12-12-18l-30 143h74c29 0 51 23 51 52 0 28-22 51-51 51h-404l-193 437c-1 1-1 1-1 1-11 26-42 37-68 26s-37-43-25-68l204-461-34-238c-9 8-19 16-27 24-20 20-38 41-54 64-8 11-20 19-34 21-13 2-28-1-39-9-23-16-28-48-12-71 20-28 42-54 66-78 83-82 194-127 311-126 16 0 33 1 50 3 128 13 244 83 314 191 9 13 16 26 23 40 12 26 1 56-25 68z m-118-96c-16-17-34-32-53-45l-46 214h64l35-169z m-126 169l49-230c-39-22-82-36-127-40-52-6-104 0-153 16l28 254h203z m-463 542c4 1 7 2 10 2 3 0 6 0 9-1 6-2 11-7 14-14l200-453h422c13 0 24-11 24-24 0-14-10-25-24-25h-437c-10 0-19 6-22 15l-208 468c-5 12 0 27 12 32z m191-534c8-5 17-8 27-8h15l-27-243c-16 7-32 16-47 25l32 226z m516-138c-6-13-12-25-20-36-66-101-174-167-295-179-15-2-31-3-47-3-109-1-214 42-291 118-24 22-44 47-63 74-8 11-5 26 6 34 4 2 8 4 13 4 2 0 3 0 5 0 6-1 12-4 16-10 16-24 36-46 57-67 79-78 189-115 299-102 106 10 201 68 259 157 7 10 12 20 18 30 0 0 0 1 0 1 6 12 20 17 32 11s17-20 11-32z" horiz-adv-x="1000" />

<glyph glyph-name="closet-2" unicode="&#xe87b;" d="M925 823h-850c-27 0-48-21-48-48v-850c0-27 21-48 48-48h850 0c27 0 48 21 48 48v850c0 27-21 48-48 48z m-871-660h433v-118h-433v118z m460 0h432v-118h-432v118z m411 633c12 0 21-9 21-21v-585h-432v606h411c0 0 0 0 0 0z m-871-21c0 12 10 21 21 21h412v-606h-433v585c0 0 0 0 0 0z m21-871c-12 0-21 9-21 21v93h433v-114h-412c0 0 0 0 0 0z m871 21c0-12-9-21-21-21h-411v114h432v-93c0 0 0 0 0 0z m-167 195h-94c-7 0-13-6-13-13 0-8 6-14 13-14h94c7 0 13 6 13 14 0 7-6 13-13 13z m-464 5h-93c-8 0-14-6-14-13 0-8 6-14 14-14h93c7 0 13 6 13 14 0 7-6 13-13 13z m464-149h-94c-7 0-13-6-13-13 0-8 6-14 13-14h94c7 0 13 6 13 14 0 7-6 13-13 13z m-464 0h-93c-8 0-14-6-14-13 0-8 6-14 14-14h93c7 0 13 6 13 14 0 7-6 13-13 13z m245 569h24v-105h-24c-8 0-14-6-14-13 0-7 6-13 14-13h37c8 0 14 6 14 13v132c0 7-6 14-14 14h-37c-8 0-14-7-14-14s6-14 14-14z m-165-104c-7 0-14-6-14-14 0-7 7-13 14-13h37c8 0 14 6 14 13v132c0 7-6 14-14 14h-37c-7 0-14-7-14-14s7-13 14-13h24v-105h-24z" horiz-adv-x="1000" />

<glyph glyph-name="message" unicode="&#xe87c;" d="M967 817c-21 21-50 33-80 33h-1l-772-1c-63 0-114-51-114-113l0-522c0-62 51-113 114-113h0l254 0 104-171c0 0 0 0 0 0 5-9 15-14 25-14h0c11 0 20 5 26 14 0 0 0 0 0 1l103 170 261 0c63 0 113 51 113 114l0 521c0 31-12 59-33 81z m-80-682l-271 0c-6 0-11-3-14-8l-105-174-105 174c-3 5-8 8-14 8l-264 0h0c-44 0-80 35-80 79l0 522c0 44 36 80 80 80l772 0h1c44 0 79-36 79-80l1-521c0-44-36-80-80-80z m0 0m-79 241h-616c-9 0-17-8-17-17s8-17 17-17h616c10 0 17 8 17 17s-7 17-17 17z m0 0m0 121h-616c-9 0-17-8-17-17s8-17 17-17h616c10 0 17 7 17 17s-7 17-17 17z m0 0m0 120h-616c-9 0-17-7-17-16s8-17 17-17h616c10 0 17 7 17 17s-7 16-17 16z m0 0" horiz-adv-x="1000" />

<glyph glyph-name="dollar-symbol" unicode="&#xe87d;" d="M139-104c1-8 7-14 15-16 7-2 15 1 20 7l42 58c84-59 184-90 285-89 276 0 500 224 500 500 1 66-12 131-38 192-3 7-9 12-16 12-7 1-14-2-18-7-4-6-5-13-2-20 23-56 35-116 35-177 0-254-207-461-461-461-93 0-184 28-261 82l63 85c4 6 5 15 1 21-4 7-12 11-20 10l-155-20c-6-1-10-4-14-8-3-4-4-10-3-15z m104 152l-47-64c0 0 0 0 0 0 0 0 0 0 0 0l-26-36-16 88z m0 0m257 762c94 0 185-28 262-82l-63-85c-4-6-5-14-2-20 4-7 10-11 18-11 1 0 2 0 2 0l156 20c5 1 10 4 13 8 3 4 5 10 4 15l-27 154c-1 8-7 14-15 16-8 2-16-1-20-7l-43-58c-83 59-183 90-285 89-276 0-500-224-500-500 0-66 13-131 39-192 2-7 8-12 15-12 7-1 14 2 19 7 4 6 5 13 2 20-23 56-36 116-35 177 0 254 206 461 460 461z m332-53l15-88-89-12 47 64c0 0 0 0 0 0 0 0 0 0 0 0z m0 0m-331-213c46 0 84-38 84-85 0-11 9-20 20-20s20 9 20 20c0 61-44 113-104 123v39c0 11-9 20-20 20-11 0-20-9-20-20v-39c-64-11-109-68-104-133 5-64 59-114 124-114 46 0 84-37 84-84 1-46-37-84-83-85-1 0-1 0-1 0-1 0-1 0-1 0-47 1-84 38-84 85 0 10-9 19-20 19-10 0-19-9-19-19 0-61 44-113 104-123v-44c0-11 9-20 20-20 11 0 20 9 20 20v44c63 10 109 68 103 132-5 65-59 115-123 115-47 0-84 38-84 84 0 47 37 85 84 85z m0 0" horiz-adv-x="1000" />

<glyph glyph-name="gift-card" unicode="&#xe87e;" d="M897 849h-642c-4 1-8 1-12 0h-139c-58 0-104-46-104-104v-554c0-57 46-103 104-103h793c57 0 103 46 103 103v554c0 58-46 104-103 104z m72-104v-391h-596c23 15 38 40 38 68 0 43-36 78-80 78-27 1-52-13-67-35v353h633c40 0 72-32 72-73z m-851-323c0 26 22 48 49 48 8 0 17-3 24-7 13-7 21-19 24-32l13-70-71 14c-22 4-39 24-39 47z m152-61l13 70c5 24 28 41 53 38 24-2 44-22 44-47 0-23-17-43-40-47z m-166 457h130v-353c-7 10-16 19-27 25-12 7-26 10-40 10-44 0-80-35-80-78 0-28 14-53 38-68h-94v391c0 41 32 73 73 73z m-73-627v133h181l-73-73c-6-6-6-16 0-22s16-6 22 0l73 73v-183h-130c-41 0-73 32-73 72z m866-72h-633v183l98-98c7-6 16-6 22 0s6 15 0 21l-98 99h683v-133c0-40-32-72-72-72z m0 0" horiz-adv-x="1000" />

<glyph glyph-name="package" unicode="&#xe87f;" d="M1002 829c0 0 0 1 0 1 0 1 0 1 0 1 0 1-1 1-1 2 0 0 0 0 0 1 0 0 0 0 0 1-1 0-1 0-1 1 0 0 0 0 0 1-1 0-1 0-1 1 0 0 0 0-1 1 0 0 0 0 0 1-1 0-1 0-1 0 0 1-1 2-1 2-1 1-2 1-2 2 0 0-1 0-1 0 0 0-1 1-1 1 0 0-1 0-1 1 0 0-1 0-1 0 0 0-1 1-1 1 0 0-1 0-1 0-1 0-1 0-1 0-1 1-1 1-1 1-1 0-1 0-2 0s0 0-1 0-1 1-1 1c-1 0-1 0-1 0-1 0-2 0-2 0h-805c-6 0-12-3-16-7l-151-151v0c-1 0-1-1-2-2l0 0c0-1-1-1-1-1 0-1 0-1 0-1-1 0-1-1-1-2 0 0 0 0 0 0-1 0-1-1-1-2v0c-1-1-1-1-1-2v0c0-1 0-1 0-2v-1c0 0-1-1-1-1 0-1 0-2 0-3v-724c0-13 11-23 23-23h277c1 0 3-1 4-1 1 0 3 1 4 1h236c2 0 3-1 4-1 2 0 3 1 4 1h276c1 0 1 0 2 0 1 0 1 0 2 0h0c1 0 2 0 2 1h1c0 0 1 0 2 0h0c0 1 1 1 2 1 0 0 0 0 0 1 0 0 1 0 2 1 0 0 0 0 0 0 1 0 1 0 1 1 1 0 1 0 1 0 1 1 1 1 2 2l150 151c5 4 7 10 7 16z m-818-27h739l-104-104h-739z m143-151h198v-95c-4 4-10 7-16 7-7 0-13-3-17-7l-25-25-24 24c-4 5-10 7-17 7s-12-2-17-7l-24-24-24 25c-5 4-11 7-17 7-6 0-12-3-17-7z m-280 0h234v-154c0-9 5-18 14-22 9-3 20-1 26 6l23 25 25-25c4-5 10-7 16-7 7 0 13 2 17 7l24 25 24-25c5-5 11-7 17-7 6 0 12 2 16 7l25 25 23-25c4-5 11-7 17-7 3 0 6 0 9 1 9 4 14 13 14 22v154h233v-677h-233v282c0 10-5 19-14 22-9 4-19 2-26-5l-23-25-25 25c-4 4-10 7-16 7-7 0-13-3-17-7l-24-25-24 25c-4 4-10 7-17 7-6 0-12-3-16-7l-25-25-23 25c-6 7-17 9-26 5-9-3-14-12-14-22v-282h-234z m478-677h-198v224c5-5 11-7 17-7 6 0 12 3 17 7l24 25 24-25c5-4 11-7 17-7s13 3 17 7l24 25 25-25c4-4 10-7 16-7s13 2 17 7z m327 33v658l104 104v-658z m0 0" horiz-adv-x="1000" />

<glyph glyph-name="coffee-cup" unicode="&#xe880;" d="M354 216h272c99 0 179 81 179 179v97h58c74 0 135 61 135 135 0 75-61 135-135 135h-58v68c0 11-9 20-20 20h-590c-11 0-20-9-20-20v-435c0-98 80-178 179-179z m509 507c52 0 95-43 95-96 0-52-43-95-95-95h-58v191z m-97 87v-176h-551v176z m-551-216h551v-199c-1-77-63-139-140-139h-272c-77 0-139 62-139 139z m0 0m782-418c-3 6-10 9-16 9h-961c-7 0-13-3-17-9-3-5-4-12-1-18l18-43c28-66 93-108 164-108h632c72 0 137 42 165 108l18 43c3 6 2 13-2 18z m-53-45c-22-52-72-85-128-85h-632c-55 0-106 34-127 85l-7 15h901z m0 0" horiz-adv-x="1000" />

<glyph glyph-name="invoice" unicode="&#xe881;" d="M688 447h-376c-12 0-22-10-22-23s10-22 22-22h376c12 0 22 10 22 22s-10 23-22 23z m0 0m-376 85h214c12 0 22 10 22 22 0 13-10 22-22 22h-214c-12 0-22-9-22-22 0-12 10-22 22-22z m0 0m376-215h-376c-12 0-22-10-22-23 0-12 10-22 22-22h376c12 0 22 10 22 22 0 13-10 23-22 23z m0 0m290 533h-956c-12 0-22-10-22-22v-229c0-12 10-22 22-22h161v-512c0-7 3-14 10-18 6-4 14-5 21-2l87 38 92-38c5-3 11-3 17 0l90 38 90-38c6-3 12-3 18 0l91 38 88-38c2-1 5-2 8-2 6 0 12 2 16 6 4 5 7 10 7 16v512h160c12 0 22 10 22 22v229c0 12-10 22-22 22z m-934-228v184h139v-184z m664-494c-6 2-12 2-18 0l-91-39-90 39c-6 2-12 2-18 0l-90-39-91 39c-5 2-12 2-17 0l-66-29v707h546v-707z m248 494h-138v184h138z m0 0" horiz-adv-x="1000" />

</font>
</defs>
</svg>
